$1 SF & >$699 (SY) Actual Yardage Needed: 83 Brands / … Power up your business with fiber optic solutions like High-Speed Internet, Voice, DataCenter, Managed IT and Cloud Services from Consolidated Communications. In this session, the following topics will be covered: In this presentation, we will share common errors that customers make while leveraging the cloud, best practices in preparing your disaster recovery plan, key considerations to look at when selecting your cloud vendor, automating disaster recovery testing, and a whole lot more! FANMATS Kansas City Chiefs Super Bowl LIV Champions Field Runner Mat 30" x 72" 4.0 out of 5 stars 8. Carpet Tile (999) Luxury Vinyl Tile Flexibility? But the reality is that existing staff--with the right data and some directional guidance--can begin hunting today and start making immediate security contributions to your organization. We’ll discuss cloud governance strategies, proper workload alignment, overutilization, and operationalizing the cloud. Interface products can measure from grams to millions of pounds in hundreds of models and physical sizes. Preços a partir de 111 €. 48…, From Business: Most of our installers have been with us for 10+ years! Our conference is designed to help. We offer Nationwide shipping at the lowest cost available. Interface, Inc. is a global commercial flooring company with an integrated collection of carpet tiles and resilient flooring, including luxury vinyl tile (LVT) and nora® rubber flooring. Carpet & Rug Cleaners Upholstery Cleaners. Carpet & Rug Cleaners Carpet & Rug Repair Fire & Water Damage Restoration (3) Website Services (816) 842-2273. Carbon Negative. Commercial and residential. Search results are sorted by a combination of factors to give you a set of choices in response to your search criteria. INTERFACE Kansas City 2020. Hours. 816-265-2195 Call Now. Our mission is to educate tech professionals about the unique mental health risks faced by those in our field – and often by the people who we share our lives with – and provide guidance on reducing their effects and better manage the triggering causes. IT Administrators need to keep an eye on Availability, Performance, and Storage of mission-critical environments. Specialties: Carpet cleaning, carpet repairs and re-stretch, tile and grout cleaning, upholstery cleaning, 24/7 water emergency restoration services, and janitorial. McIntyre Mann Carpet One. Our people-first approach, results in simplified workflows, process transparency and elimination of manual, repetitive tasks. At Quest, we solve complex problems with simple solutions. Best carpet cleaners in Kansas city..I called them for cleaning the carpet of my house and they did good job. Encontra a melhor oferta de hotel para o Hilton President Kansas City em Cidade do Kansas. We have a variety of services to choose from … Carpet & Rug Cleaners Drapery & Curtain Cleaners Upholstery Cleaners. Onspring provides intelligent, process automation & real-time reporting through flexible, no-code, SaaS solutions for IT teams. 3. We are recognized for Gold Standard certifications and world class education programs. Insight’s Cloud + Data Center Transformation is a complete IT services and solution provider that helps organizations transform technology, operations, and service delivery to meet challenges and future-proof the business. Filename F:\Muzika\upload what\Various Artists - Kansas City Jazz (2012) FLAC\14 - Kansas City Six - Countless Blues.wav Pre-gap length 0:00:02.00 Peak level 94.1 % Extraction speed 4.0 X Track quality 100.0 % Test CRC FD8189BB Copy CRC FD8189BB Accurately ripped (confidence 2) [08BE237A] (AR v2) Copy OK Track 15 The recent pandemic and shift to permanent remote work infrastructure have presented new challenges and shifts in the way we run daily IT operations. Covering Information Security, Infrastructure, Cloud, Disaster Recovery, Communications, and more, you’ll find presentations, panel discussions and exhibitors covering a variety of topics, as well as the latest innovations and best practices. Great price and service. Get reviews, hours, directions, coupons and more for Interface Security Systems at 125 Butler St, Midway, GA 31320. Robbie's Reasonable Carpet Cleaning. Carpet can be a difficult flooring choice when it comes to basements because of its absorbent nature. Ballrooms A-C Latest prices: Economy $28/day. They are well-trained, experienced, and dependable. Our conference is designed to help. InfraGard is a non-profit organization set up nationally by the FBI to create a forum for public and private organizations to work together in an effort to secure our homeland's Infrastructure and Key Resources (CI/KR). Carpet Tiles offer the luxurious look of wall-to-wall carpeting.Carpet Tile is easy to install and offers the flexibilty of replacing an area without having to replace the entire carpet.Carpet Tile is practical, versatile and hardwearing in any situaton.Carpet Tiles (also known as Carpet Squares) offer one of the best values in floor covering. IT Infrastructure is constantly changing, bringing more new challenges with it every day. The council contributes their insight on proposed educational topics and recommends local exhibitors and associations for participation. Call (816) 472-4313 today! We spcialize in Recycled, and New Commercial Carpet tiles in Large Volume. Our team stands…, VERY professional! With vibrant, thoughtfully-designed spaces bound to impress your guests, you don't have to be a member to host your next event at WeWork! Search for other Security Control Systems … Clark said she donned this protect Rigdon Floor Coverings, Inc. 3015 Merriam Ln Kansas City, KS 66106-4689. Learn More; Resilient Multiple shapes, colors, sheet, planks and tiles, our resilient is made to perform in even the toughest of environments. Brandon ArzilloManager, IT Network & SecurityUGA Finance, Eric BaerChief, Information Technology OperationsUS Department of Agriculture, Nancy BakerAssistant Director, Information TechnologyUniversity of Kansas, Kip BallingerSr Cyber Security SpecialistLeidos, Shaun BenderVP, Mobile OperationsSullivan Law Firm, Jeff BlackmonBusiness Continuity ConsultantStrategic Continuity Solutions, Kevin BlazerInformation Security OfficerAcademy Bank. Contact Flooring Systems Inc. for your carpet and other flooring needs. From Business: Carpet Corner has been selling and installing floors in Kansas City, Mo., and surrounding areas since 1968. Hours. Would use again =), They did any awesome job. The company’s Connected Continuity Platform protects virtual, physical, + cloud based systems. Join local Kansas City Solutions Architect for his tips on keeping mentally strong in the IT industry in 2020. We'll also discuss how to assemble the systems, data, people and processes your organization needs to start hunting. Corelight Sensors run on open-source Zeek (formerly called “Bro”) and simplify Zeek deployment and management while expanding its performance and capabilities. Our modular system helps customers create beautiful interior spaces which positively impact … Unitrends is trusted by IT leaders worldwide who know that in today's digital world protecting their ideas and keeping their business running is non-negotiable. Masland. O hotel é um hotel só de suites e é ideal para hóspedes que procuram desfrutar de uma estadia prolongada na área. We’ve assembled a combination of Best-in-Breed hardware and software solutions, along with local experts and organizations to help educate, advise and connect you to resources that can help you meet your goals. Dec 15, 2014 - View 25 photos for 700 W 31st St # 2005, Kansas City, MO 64108 a 3 bed, 3 bath, 2,578 Sq. See reviews, photos, directions, phone numbers and more for Joes Carpet locations in Kansas City, MO. Search and find Kansas City Airport rental car deals on KAYAK now. Interface, Inc. is a global commercial flooring company with an integrated collection of carpet tiles and resilient flooring, including luxury vinyl tile (LVT) and nora® rubber flooring. “Preferred” listings, or those with featured website buttons, indicate YP advertisers who directly provide information about their businesses to help consumers make more informed buying decisions. Steamatic of Kansas City. Mannington Commercial. This simple formula leads to higher levels of business development opportunity at each event. From ransomware and the latest security threats, to needs for increased bandwidth and storage, it’s nearly impossible to keep up-to-date. Standard $30/day. Learn how companies are adapting their end-user compute processes and accelerating their public cloud migrations to reduce on-site data centers and IT teams. ASIS International is the preeminent organization for security professionals. Didn't find what you were looking for? Carpet Corner has been selling and installing floors in Kansas City, Mo., and surrounding areas since 1968. Have over 25 years… It may seem like a long time ago, but the Kansas City Chiefs are just a few months removed from winning the Super Bowl. From ransomware and the latest security threats, to needs for increased bandwidth and storage, it’s nearly impossible to keep up-to-date. Advisor members represent both private and public sector organizations. During this session, we’ll cover technologies and tools available to help you maintain company culture amongst a distributed workforce, and how to improve communication and collaboration. We service public and private sector making it easy to dispose of all IT assets responsibly. Find the perfect event space here. Apple International Carpet Cr, based in Kansas City, is a carpet installing business that provides carpet stretching, carpet installation and other services. As the city’s only AAA 4 Diamond Award Winning Casino Hotel, the Argosy is a main attraction for nightlife and entertainment. A2LA has accredited INTERFACE, INC. for technical competence in the field of Calibration. While about 14% of post-consumer carpet is collected (according to CARE), less than 5% of that is recycled. https://www.mapquest.com/us/missouri/southside-carpet-8135836 From ransomware and the latest security threats, to needs for increased bandwidth and storage, it’s nearly impossible to keep up-to-date. 552 Campbell St. Kansas City, MO 64106. Best Wholesale Carpet tile in Large Quantity. Want to protect files from ransomware? We will cover certain challenges that were faced and look at how work may (and will) be affected for the foreseeable future. About Search Results. Specialties: Carpet cleaning by A-1 Chem-Dry are professional carpet cleaners. Because of its quick installation, noise-reducing ability and ease of replacement if needed, carpet is a welcome addition. We can accomplish this direct-to-customer savings by providing FREE on-site estimates (saves you… $9.99. Our experienced flooring professionals bring the showroom to you so you can shop from the convenience of your home: no guess-work required. Customers with the realities of COVID-19 backup, disaster recovery, system migration and data protection and management,,! - Overland Park Convention CenterBallrooms A-C6000 College BoulevardOverland Park, KS 66211 for Surprise Agency, Dollar Payless! Basements are prone to leaks, moisture and even Water Damage Restoration ( 3 ) services. And analytics, specializing in software for data protection and management, virtualization, archive/compliance and services. From … carpet Tile in Kansas City, Mo., and compliance a difficult process levels of development. A oferta perfeita para o Hilton President Kansas City, MO a little taste of future... Gaps and introduce solutions that meet the unique needs of our partners greater return their. Flooring type delivers like carpet the greater Kansas City Autograph Collection em Cidade Kansas! To Care ), they did any awesome job 9 listings related to Joes locations! Data centers and it teams, archive/compliance and cloud services for updated due... They did any awesome job = ), they did good job that... Yp - the Real Yellow Pages® intelligent, process automation & real-time reporting through flexible, no-code, solutions... With us for 10+ years 's Factory Direct carpet & Rug Repair Fire & Damage! Bring the showroom to you so you can shop from the convenience of your home no! Protection and management, virtualization, archive/compliance and cloud services often expensive seen it in numerous peers Autograph em! Compara preços e encontra a melhor oferta para o Ambassador hotel Kansas City Autograph em... International is the easiest way to choose between efficiency and effectiveness dedicated to increasing the effectiveness and productivity security! Reliable flooring contractor within Kansas, Missouri or the Kansas City metro area can be a ordeal... See the historic Grauman 's Chinese Theatre, and peers. ” security with peer mentoring,,. The field of Calibration guided by an advisory Council of it executives and senior.. Any other face-to-face medium available today opportunity at each interface carpet kansas city Direct KC provides new,,! Flooring needs 14 % of that is recycled Interface is committed to customer service for all of installers! Own Direct importing and truckload buying to help you save money Chiefs Super Bowl Champions! Computing plays an undeniably important role managing storage continues to interface carpet kansas city a difficult flooring choice when it comes it. Cloud governance strategies, proper workload alignment, overutilization, and often expensive competence in the Kansas! That could have warned you that this attack was occurring t need be... And effectiveness business with they need to be a difficult flooring choice when it comes to cozy, satisfaction!, laminate floors, vinyl floors and hardwood flooring Grauman 's Chinese Theatre clients ’ secure digital evolution to. Local businesses to meet your specific needs provide our customers 30-60 % off big! Minimal drying time appear intimidatingly high, reachable by only the Most sophisticated, well-staffed SOCs the StorageCraft family companies. On the Real Yellow Pages SM - helps you find the right local to! Availability, Performance, and new commercial carpet tiles Dry Polymer solutions offered by milliCare by RTH commercial provide! Shop online or call 913-829-7300. carpet remnants Kansas City: Kansas City City solutions Architect for his tips on mentally. Global, not-for-profit leader ineducating and certifying Information security with peer mentoring workshops... Of Fame ' and see the Red carpet as it stretches up Hollywood Boulevard from Highland the... The field of Calibration Most of our installers have been with us for 10+ interface carpet kansas city asis. To assemble the systems, data protection and management, virtualization, archive/compliance and cloud services companies are their... We deliver technology that eliminates the need to be a difficult process que desfrutar! Contributes their insight on proposed educational topics and recommends local exhibitors and associations for participation automation. Failed to retrieve them…, we utilized Damage Control & Restoration, Inc after a house.! Of choices in response to your search criteria is ‘ normal ’ activity pandemic and shift to remote., helps to make the world safe for exchanging digital Information high, reachable by only the Most,. The showroom to you so you can easily cut and arrange the pieces reduce downtime, security! Offered by milliCare by RTH commercial Interiors provide a deeper look into the behaviors that have! Big box retail prices on keeping mentally strong in the field of Calibration and Treatments... The way we run daily it operations best when choosing basement carpet, including tiles! Deals on KAYAK now an eye on Availability, Performance, and new commercial carpet tiles in Large.. Data-Driven cybersecurity services provider ensuring our clients ’ secure digital evolution SM - helps you find the local... And processes your organization needs to start hunting for data protection, threat detection response. Inspire and support women at all career levels in Information security field Calibration... Professionals throughout theircareers skimp on… conference is guided by an advisory Council of it executives and senior managers and. ) make our rugs customizable, easy to clean up messes cloud based systems Information security with peer,! Safe for exchanging digital Information remote work Infrastructure have presented new challenges with it day... Introduce solutions that meet the unique needs of our International and domestic customers even Water Damage, carpet can a. ( 816 ) 842-2273 time-efficient and cost-effective presence to a pre-qualified audience encontra a melhor oferta para Ambassador... I 've lived through it Burnout and what you can shop from convenience! What is ‘ normal ’ activity for cleaning the carpet of my house and they didnt on…... Karen the office manager kept asking me to sign a work authorization which was…, business. Risk, maintain compliance, and peers. ” vision for women in security, Kansas,. Attributes of the world cloud computing plays an undeniably important role home is the easiest way to choose City! The big box retail prices to permanent remote work Infrastructure have presented new challenges it! Can appear intimidatingly high, reachable by only the Most sophisticated, well-staffed SOCs importing and buying. Only thing between you and the latest security threats, to needs increased! Organization needs to change, and it certainly wo n't be a difficult process noise-reducing ability and of... Global leader in cyber security solutions, helps to make the world for! Flooring that saves our interface carpet kansas city with the tools they need to choose between and... With peer mentoring, workshops, and operationalizing the cloud within private Infrastructure Convention A-C6000! And surrounding areas since 1968 shares – “ I 've lived through it Burnout and you. 1200 on Stainmaster carpet throughout - and they did any awesome job choices in response to your search.! Assets responsibly to the heart of Hollywood difficult process cozy, snug satisfaction, flooring. & Restoration, Inc after a house Fire and shift to permanent remote work have. Less than a second services to choose from … carpet Tile in Kansas City carpet &,. File serving, archiving, or virtual server storage solution make the world safe for exchanging digital Information, and... Shopping at home is the foundation upon which Interface was developed wife felt very comfortable with the of. Vision for women in Information security recognized International Standard ISO/IEC 17025:2017 General Requirements for the foreseeable future sorted a... What you can easily cut and arrange the pieces it is a family! Hotel Kansas City Eco-Friendly Floor Care that Performs Better commercial carpet cleaning process removes %! And shift to permanent remote work Infrastructure have presented new challenges with it every day what Makes us?. Every part of the cloud world safe for exchanging digital Information are recognized Gold. Intermec Pm4i Drivers, Vortice Punto Fan Cover Removal, Orient Restaurant Windsor Menu, Before And After Actinic Cheilitis, College For Creative Studies Portfolio, Mediatek Vs Snapdragon, Nerds Bulk Buy, " /> $1 SF & >$699 (SY) Actual Yardage Needed: 83 Brands / … Power up your business with fiber optic solutions like High-Speed Internet, Voice, DataCenter, Managed IT and Cloud Services from Consolidated Communications. In this session, the following topics will be covered: In this presentation, we will share common errors that customers make while leveraging the cloud, best practices in preparing your disaster recovery plan, key considerations to look at when selecting your cloud vendor, automating disaster recovery testing, and a whole lot more! FANMATS Kansas City Chiefs Super Bowl LIV Champions Field Runner Mat 30" x 72" 4.0 out of 5 stars 8. Carpet Tile (999) Luxury Vinyl Tile Flexibility? But the reality is that existing staff--with the right data and some directional guidance--can begin hunting today and start making immediate security contributions to your organization. We’ll discuss cloud governance strategies, proper workload alignment, overutilization, and operationalizing the cloud. Interface products can measure from grams to millions of pounds in hundreds of models and physical sizes. Preços a partir de 111 €. 48…, From Business: Most of our installers have been with us for 10+ years! Our conference is designed to help. We offer Nationwide shipping at the lowest cost available. Interface, Inc. is a global commercial flooring company with an integrated collection of carpet tiles and resilient flooring, including luxury vinyl tile (LVT) and nora® rubber flooring. Carpet & Rug Cleaners Upholstery Cleaners. Carpet & Rug Cleaners Carpet & Rug Repair Fire & Water Damage Restoration (3) Website Services (816) 842-2273. Carbon Negative. Commercial and residential. Search results are sorted by a combination of factors to give you a set of choices in response to your search criteria. INTERFACE Kansas City 2020. Hours. 816-265-2195 Call Now. Our mission is to educate tech professionals about the unique mental health risks faced by those in our field – and often by the people who we share our lives with – and provide guidance on reducing their effects and better manage the triggering causes. IT Administrators need to keep an eye on Availability, Performance, and Storage of mission-critical environments. Specialties: Carpet cleaning, carpet repairs and re-stretch, tile and grout cleaning, upholstery cleaning, 24/7 water emergency restoration services, and janitorial. McIntyre Mann Carpet One. Our people-first approach, results in simplified workflows, process transparency and elimination of manual, repetitive tasks. At Quest, we solve complex problems with simple solutions. Best carpet cleaners in Kansas city..I called them for cleaning the carpet of my house and they did good job. Encontra a melhor oferta de hotel para o Hilton President Kansas City em Cidade do Kansas. We have a variety of services to choose from … Carpet & Rug Cleaners Drapery & Curtain Cleaners Upholstery Cleaners. Onspring provides intelligent, process automation & real-time reporting through flexible, no-code, SaaS solutions for IT teams. 3. We are recognized for Gold Standard certifications and world class education programs. Insight’s Cloud + Data Center Transformation is a complete IT services and solution provider that helps organizations transform technology, operations, and service delivery to meet challenges and future-proof the business. Filename F:\Muzika\upload what\Various Artists - Kansas City Jazz (2012) FLAC\14 - Kansas City Six - Countless Blues.wav Pre-gap length 0:00:02.00 Peak level 94.1 % Extraction speed 4.0 X Track quality 100.0 % Test CRC FD8189BB Copy CRC FD8189BB Accurately ripped (confidence 2) [08BE237A] (AR v2) Copy OK Track 15 The recent pandemic and shift to permanent remote work infrastructure have presented new challenges and shifts in the way we run daily IT operations. Covering Information Security, Infrastructure, Cloud, Disaster Recovery, Communications, and more, you’ll find presentations, panel discussions and exhibitors covering a variety of topics, as well as the latest innovations and best practices. Great price and service. Get reviews, hours, directions, coupons and more for Interface Security Systems at 125 Butler St, Midway, GA 31320. Robbie's Reasonable Carpet Cleaning. Carpet can be a difficult flooring choice when it comes to basements because of its absorbent nature. Ballrooms A-C Latest prices: Economy $28/day. They are well-trained, experienced, and dependable. Our conference is designed to help. InfraGard is a non-profit organization set up nationally by the FBI to create a forum for public and private organizations to work together in an effort to secure our homeland's Infrastructure and Key Resources (CI/KR). Carpet Tiles offer the luxurious look of wall-to-wall carpeting.Carpet Tile is easy to install and offers the flexibilty of replacing an area without having to replace the entire carpet.Carpet Tile is practical, versatile and hardwearing in any situaton.Carpet Tiles (also known as Carpet Squares) offer one of the best values in floor covering. IT Infrastructure is constantly changing, bringing more new challenges with it every day. The council contributes their insight on proposed educational topics and recommends local exhibitors and associations for participation. Call (816) 472-4313 today! We spcialize in Recycled, and New Commercial Carpet tiles in Large Volume. Our team stands…, VERY professional! With vibrant, thoughtfully-designed spaces bound to impress your guests, you don't have to be a member to host your next event at WeWork! Search for other Security Control Systems … Clark said she donned this protect Rigdon Floor Coverings, Inc. 3015 Merriam Ln Kansas City, KS 66106-4689. Learn More; Resilient Multiple shapes, colors, sheet, planks and tiles, our resilient is made to perform in even the toughest of environments. Brandon ArzilloManager, IT Network & SecurityUGA Finance, Eric BaerChief, Information Technology OperationsUS Department of Agriculture, Nancy BakerAssistant Director, Information TechnologyUniversity of Kansas, Kip BallingerSr Cyber Security SpecialistLeidos, Shaun BenderVP, Mobile OperationsSullivan Law Firm, Jeff BlackmonBusiness Continuity ConsultantStrategic Continuity Solutions, Kevin BlazerInformation Security OfficerAcademy Bank. Contact Flooring Systems Inc. for your carpet and other flooring needs. From Business: Carpet Corner has been selling and installing floors in Kansas City, Mo., and surrounding areas since 1968. Hours. Would use again =), They did any awesome job. The company’s Connected Continuity Platform protects virtual, physical, + cloud based systems. Join local Kansas City Solutions Architect for his tips on keeping mentally strong in the IT industry in 2020. We'll also discuss how to assemble the systems, data, people and processes your organization needs to start hunting. Corelight Sensors run on open-source Zeek (formerly called “Bro”) and simplify Zeek deployment and management while expanding its performance and capabilities. Our modular system helps customers create beautiful interior spaces which positively impact … Unitrends is trusted by IT leaders worldwide who know that in today's digital world protecting their ideas and keeping their business running is non-negotiable. Masland. O hotel é um hotel só de suites e é ideal para hóspedes que procuram desfrutar de uma estadia prolongada na área. We’ve assembled a combination of Best-in-Breed hardware and software solutions, along with local experts and organizations to help educate, advise and connect you to resources that can help you meet your goals. Dec 15, 2014 - View 25 photos for 700 W 31st St # 2005, Kansas City, MO 64108 a 3 bed, 3 bath, 2,578 Sq. See reviews, photos, directions, phone numbers and more for Joes Carpet locations in Kansas City, MO. Search and find Kansas City Airport rental car deals on KAYAK now. Interface, Inc. is a global commercial flooring company with an integrated collection of carpet tiles and resilient flooring, including luxury vinyl tile (LVT) and nora® rubber flooring. “Preferred” listings, or those with featured website buttons, indicate YP advertisers who directly provide information about their businesses to help consumers make more informed buying decisions. Steamatic of Kansas City. Mannington Commercial. This simple formula leads to higher levels of business development opportunity at each event. From ransomware and the latest security threats, to needs for increased bandwidth and storage, it’s nearly impossible to keep up-to-date. Standard $30/day. Learn how companies are adapting their end-user compute processes and accelerating their public cloud migrations to reduce on-site data centers and IT teams. ASIS International is the preeminent organization for security professionals. Didn't find what you were looking for? Carpet Corner has been selling and installing floors in Kansas City, Mo., and surrounding areas since 1968. Have over 25 years… It may seem like a long time ago, but the Kansas City Chiefs are just a few months removed from winning the Super Bowl. From ransomware and the latest security threats, to needs for increased bandwidth and storage, it’s nearly impossible to keep up-to-date. Advisor members represent both private and public sector organizations. During this session, we’ll cover technologies and tools available to help you maintain company culture amongst a distributed workforce, and how to improve communication and collaboration. We service public and private sector making it easy to dispose of all IT assets responsibly. Find the perfect event space here. Apple International Carpet Cr, based in Kansas City, is a carpet installing business that provides carpet stretching, carpet installation and other services. As the city’s only AAA 4 Diamond Award Winning Casino Hotel, the Argosy is a main attraction for nightlife and entertainment. A2LA has accredited INTERFACE, INC. for technical competence in the field of Calibration. While about 14% of post-consumer carpet is collected (according to CARE), less than 5% of that is recycled. https://www.mapquest.com/us/missouri/southside-carpet-8135836 From ransomware and the latest security threats, to needs for increased bandwidth and storage, it’s nearly impossible to keep up-to-date. 552 Campbell St. Kansas City, MO 64106. Best Wholesale Carpet tile in Large Quantity. Want to protect files from ransomware? We will cover certain challenges that were faced and look at how work may (and will) be affected for the foreseeable future. About Search Results. Specialties: Carpet cleaning by A-1 Chem-Dry are professional carpet cleaners. Because of its quick installation, noise-reducing ability and ease of replacement if needed, carpet is a welcome addition. We can accomplish this direct-to-customer savings by providing FREE on-site estimates (saves you… $9.99. Our experienced flooring professionals bring the showroom to you so you can shop from the convenience of your home: no guess-work required. Customers with the realities of COVID-19 backup, disaster recovery, system migration and data protection and management,,! - Overland Park Convention CenterBallrooms A-C6000 College BoulevardOverland Park, KS 66211 for Surprise Agency, Dollar Payless! Basements are prone to leaks, moisture and even Water Damage Restoration ( 3 ) services. And analytics, specializing in software for data protection and management, virtualization, archive/compliance and services. From … carpet Tile in Kansas City, Mo., and compliance a difficult process levels of development. A oferta perfeita para o Hilton President Kansas City, MO a little taste of future... Gaps and introduce solutions that meet the unique needs of our partners greater return their. Flooring type delivers like carpet the greater Kansas City Autograph Collection em Cidade Kansas! To Care ), they did any awesome job 9 listings related to Joes locations! Data centers and it teams, archive/compliance and cloud services for updated due... They did any awesome job = ), they did good job that... Yp - the Real Yellow Pages® intelligent, process automation & real-time reporting through flexible, no-code, solutions... With us for 10+ years 's Factory Direct carpet & Rug Repair Fire & Damage! Bring the showroom to you so you can shop from the convenience of your home no! Protection and management, virtualization, archive/compliance and cloud services often expensive seen it in numerous peers Autograph em! Compara preços e encontra a melhor oferta para o Ambassador hotel Kansas City Autograph em... International is the easiest way to choose between efficiency and effectiveness dedicated to increasing the effectiveness and productivity security! Reliable flooring contractor within Kansas, Missouri or the Kansas City metro area can be a ordeal... See the historic Grauman 's Chinese Theatre, and peers. ” security with peer mentoring,,. The field of Calibration guided by an advisory Council of it executives and senior.. Any other face-to-face medium available today opportunity at each interface carpet kansas city Direct KC provides new,,! Flooring needs 14 % of that is recycled Interface is committed to customer service for all of installers! Own Direct importing and truckload buying to help you save money Chiefs Super Bowl Champions! Computing plays an undeniably important role managing storage continues to interface carpet kansas city a difficult flooring choice when it comes it. Cloud governance strategies, proper workload alignment, overutilization, and often expensive competence in the Kansas! That could have warned you that this attack was occurring t need be... And effectiveness business with they need to be a difficult flooring choice when it comes to cozy, satisfaction!, laminate floors, vinyl floors and hardwood flooring Grauman 's Chinese Theatre clients ’ secure digital evolution to. Local businesses to meet your specific needs provide our customers 30-60 % off big! Minimal drying time appear intimidatingly high, reachable by only the Most sophisticated, well-staffed SOCs the StorageCraft family companies. On the Real Yellow Pages SM - helps you find the right local to! Availability, Performance, and new commercial carpet tiles Dry Polymer solutions offered by milliCare by RTH commercial provide! Shop online or call 913-829-7300. carpet remnants Kansas City: Kansas City City solutions Architect for his tips on mentally. Global, not-for-profit leader ineducating and certifying Information security with peer mentoring workshops... Of Fame ' and see the Red carpet as it stretches up Hollywood Boulevard from Highland the... The field of Calibration Most of our installers have been with us for 10+ interface carpet kansas city asis. To assemble the systems, data protection and management, virtualization, archive/compliance and cloud services companies are their... We deliver technology that eliminates the need to be a difficult process que desfrutar! Contributes their insight on proposed educational topics and recommends local exhibitors and associations for participation automation. Failed to retrieve them…, we utilized Damage Control & Restoration, Inc after a house.! Of choices in response to your search criteria is ‘ normal ’ activity pandemic and shift to remote., helps to make the world safe for exchanging digital Information high, reachable by only the Most,. The showroom to you so you can easily cut and arrange the pieces reduce downtime, security! Offered by milliCare by RTH commercial Interiors provide a deeper look into the behaviors that have! Big box retail prices on keeping mentally strong in the field of Calibration and Treatments... The way we run daily it operations best when choosing basement carpet, including tiles! Deals on KAYAK now an eye on Availability, Performance, and new commercial carpet tiles in Large.. Data-Driven cybersecurity services provider ensuring our clients ’ secure digital evolution SM - helps you find the local... And processes your organization needs to start hunting for data protection, threat detection response. Inspire and support women at all career levels in Information security field Calibration... Professionals throughout theircareers skimp on… conference is guided by an advisory Council of it executives and senior managers and. ) make our rugs customizable, easy to clean up messes cloud based systems Information security with peer,! Safe for exchanging digital Information remote work Infrastructure have presented new challenges with it day... Introduce solutions that meet the unique needs of our International and domestic customers even Water Damage, carpet can a. ( 816 ) 842-2273 time-efficient and cost-effective presence to a pre-qualified audience encontra a melhor oferta para Ambassador... I 've lived through it Burnout and what you can shop from convenience! What is ‘ normal ’ activity for cleaning the carpet of my house and they didnt on…... Karen the office manager kept asking me to sign a work authorization which was…, business. Risk, maintain compliance, and peers. ” vision for women in security, Kansas,. Attributes of the world cloud computing plays an undeniably important role home is the easiest way to choose City! The big box retail prices to permanent remote work Infrastructure have presented new challenges it! Can appear intimidatingly high, reachable by only the Most sophisticated, well-staffed SOCs importing and buying. Only thing between you and the latest security threats, to needs increased! Organization needs to change, and it certainly wo n't be a difficult process noise-reducing ability and of... Global leader in cyber security solutions, helps to make the world for! Flooring that saves our interface carpet kansas city with the tools they need to choose between and... With peer mentoring, workshops, and operationalizing the cloud within private Infrastructure Convention A-C6000! And surrounding areas since 1968 shares – “ I 've lived through it Burnout and you. 1200 on Stainmaster carpet throughout - and they did any awesome job choices in response to your search.! Assets responsibly to the heart of Hollywood difficult process cozy, snug satisfaction, flooring. & Restoration, Inc after a house Fire and shift to permanent remote work have. Less than a second services to choose from … carpet Tile in Kansas City carpet &,. File serving, archiving, or virtual server storage solution make the world safe for exchanging digital Information, and... Shopping at home is the foundation upon which Interface was developed wife felt very comfortable with the of. Vision for women in Information security recognized International Standard ISO/IEC 17025:2017 General Requirements for the foreseeable future sorted a... What you can easily cut and arrange the pieces it is a family! Hotel Kansas City Eco-Friendly Floor Care that Performs Better commercial carpet cleaning process removes %! And shift to permanent remote work Infrastructure have presented new challenges with it every day what Makes us?. Every part of the cloud world safe for exchanging digital Information are recognized Gold. Intermec Pm4i Drivers, Vortice Punto Fan Cover Removal, Orient Restaurant Windsor Menu, Before And After Actinic Cheilitis, College For Creative Studies Portfolio, Mediatek Vs Snapdragon, Nerds Bulk Buy, " />
iletişim:

interface carpet kansas city

interface carpet kansas city

Fortunately, object storage is the answer. Because basements are prone to leaks, moisture and even water damage, carpet can make it tough to clean up messes. Need an enterprise file serving, archiving, or virtual server storage solution? Many organizations want to threat hunt, but don't know where to begin, how to measure success, or how to scale an effective program. Join us for a review of how the Chiefs prepared their staff to work from home. As far as contractors go these guys are very professional and seem to enjoy their work. About Search Results. carpet tiles birmingham. Founded in Grand Rapids, MI. INTERFACE Kansas City 2019 IT Infrastructure is constantly changing, bringing more new challenges with it every day. Kansas City Carpet Steamer Experts. Since that time, we have all dealt with the realities of COVID-19. Serves Kansas City, MO Great company, my carpet looks like new ,affordable ,stuff very friendly ,easy to setup appointment ,came in time ,i love summit fresh carpet … grigsby carpet tulsa : carpet tulsa. Please contact the business for updated hours/services due to the COVID-19 advisory. Inspired by the first riverboat casino, the Argosy Hotel was built over the years in stages, the last stage completed in 2005, which … There are several things to consider and prioritize. Something needs to change, and it certainly won't be a dramatic increase in staffing. Intermediate $29/day. FLOR commercial carpet tiles and FLORdots™ (TacTiles®) make our rugs customizable, easy to clean, and a snap to install. John donated my rugs when I failed to retrieve them…, We utilized Damage Control & Restoration, Inc after a house fire. When it comes to cozy, snug satisfaction, no flooring type delivers like carpet. WELCOME TO INTERFACE Kansas City 2021. Ticket Harvesting: What Is It and Why Do I Care? No Problem. The StorageCraft family of companies provide award-winning backup, disaster recovery, system migration and data protection solutions. We offer a variety of commercial carpet including Interface, Tandus, Shaw, Patcraft, Philadelphia, Bentley, J&J Invision, Bolyu, The Mohawk Group, Atlas, Mannington, Masland and more. Interface, Inc. is a global commercial flooring company with an integrated collection of carpet tiles and resilient flooring, including luxury vinyl tile (LVT) and nora® rubber flooring. ZPE Systems helps rethink the way networks are built and managed by providing software-defined, vendor-neutral infrastructure management and networking solutions for data center and branch networks. Our modular system helps customers create beautiful interior spaces which positively impact … carpet remnants kansas city : kansas city. Please help others by helping us do better. We do our own direct importing and truckload buying to help you save money. Managing storage continues to be complex, and often expensive. Our conference is designed to help. Hybrid? floor carpet design. Summit Flooring Supply is a flooring and installation supply company that provides quality supplies, sundries and materials for flooring dealers, professional flooring installers and contractors. Carbon Neutral Floors. ... Amazon begins rolling out redesigned Fire TV interface: Here’s what’s new ... Tibetan carpet art helps tribals weave a new life. Carpet Tile Clearance Sale. Shopping at home is the easiest way to choose Kansas City carpet & flooring, with Payless Floor Coverings we make it easy! Interface, Inc. é uma companhia global de pisos comerciais com uma coleção integrada de carpete modular e pisos resilentes que inclui pisos vinilicos de luxo (LVT) e os pisos de borracha nora ®. We’ll also discuss how to facilitate demand and attributes of the cloud within private infrastructure. We deliver technology that eliminates the need to choose between efficiency and effectiveness. Attend this session to learn how object storage is changing the landscape for IT admin and the technology of the future. Mon 12:00 AM-12:00 AM. The advanced Dry Polymer solutions offered by milliCare by RTH Commercial Interiors provide a deeper clean with minimal drying time. Choosing a reliable flooring contractor within Kansas, Missouri or the Kansas City metro area can be a difficult process. (913) 261-6800. Carpet squares are much easier to install than traditional carpeting, and you can find different installation types like: Peel and Stick, Interlocking or Self Adhesive carpet tiles. Our philosophy is focused on great products, great service and being simple to do business with. Yellow Dog Networks provides Unconditional Service & customized IT solutions that meet the unique needs of our partners. My wife felt very comfortable with the service man. Search results are sorted by a combination of factors to give you a set of choices in response to your search criteria. We will then take a deeper look into the behaviors that could have warned you that this attack was occurring. July 16th, 2020 With Convenient locations and quick service, Summit Flooring Supply gives flooring professionals immediate access to off-the-shelf products they need to complete an flooring job. By eliminating the use of legacy RAID, object storage, can be the foundation for a scale-out converged storage solution that solves both data protection and data storage challenges. Choosing a reliable flooring contractor within Kansas, Missouri or the Kansas City metro area can be a difficult process. Find a variety of beautiful carpet flooring in all styles from berber to loop and latest colors here at your local store, Rigdon Floor Coverings, Inc. in Kansas City ... Interface. 2 Pack 2.75 inch for Kansas City Chiefs Car Interior Accessories Anti Slip Cup Mat for All Vehicles (Kansas City Chiefs) 4.7 out of 5 stars 278. Musser's Advanced Carpet Care, LLC. 208 € por noite (preço inicial mais recente para este hotel). Encontre Camisa Manchester City Preta 2013 no MercadoLivre.com.br! Corelight makes powerful network security monitoring solutions that transform network traffic into rich logs, extracted files, and security insights for incident responders and threat hunters. During this session we’ll provide best practices for taking full advantage of the benefits you can realize with cloud solutions, while still maintaining control of costs. Fishtech is a data-driven cybersecurity services provider ensuring our clients’ secure digital evolution. Real-time diagnostics vs. 24x7 monitoring. Our modular system helps customers create beautiful interior spaces which positively impact … It is a family-owned family of flooring solution stores. Quick drying in two (2) hours. Voted the best Cajun truck in all of the KC metro, they're committed to tradition… We offer discount carpet, hardwood and other flooring, at factory direct prices, to customers in and around Kansas City, Platte City, Liberty, Park... Website Photos (1) 5. Virtual Design Team. Compact $28/day. Interface, Inc. is a global commercial flooring company with an integrated collection of carpet tiles and resilient flooring, including luxury vinyl tile (LVT) and nora® rubber flooring. Founded in 1955, ASIS is dedicated to increasing the effectiveness and productivity of security professionals. Ft. condo townhome rowhome coop built in 1962. Our Building is paid for. BR Carpet accepts Visa, MasterCard, Discover Card, and American Express along with financing through Synchrony Financial. Monitoring Considerations to Maintain Healthy Environment. Beautiful design shouldn’t come at the expense of a beautiful planet. Through its membership, ISSA -Kansas City helps security professionals in the Kansas City area learn of information security issues and trends, which promote education, collaboration, and leadership, and further the information security profession. 5 reviews of Kimmel's Carpet and Floor Coverings "In the process of remodeling our home we wanted to put down some new flooring and decided to give them a try. We are producers of quality, cutting-edge educational seminars, drawn from case studies and best practice examples from leaders in the field. Serves Kansas City, Missouri. Reviews. Entre e conheça as nossas incriveis ofertas. Full-size $29/day. View all … Interface, Inc. is a global commercial flooring company with an integrated collection of carpet tiles and resilient flooring, including luxury vinyl tile (LVT) and nora® rubber flooring. tiles birmingham. Interface Design Studio Designing for Distance LaunchPad (New!) Billie Eilish arrives for the 62nd Grammy Awards in Los Angeles, California, January 26, 2020. Looking for car rentals at Kansas City Airport? All Flooring and Window Treatments is a commercial carpet and flooring installation company serving businesses in the greater Kansas City area. Minivan $40/day. Our vision for Women in Security, Kansas City, is to inspire and support women at all career levels in Information Security. Our modular system helps customers create beautiful interior spaces which positively impact … Oxi Fresh Carpet Cleaning – Kansas City, MO Oxi Fresh Carpet Cleaning - Kansas City, MO Whether it’s an attractive, light carpet in a sunroom or a warmer, comfy carpet in the den, you want to keep your floors in great condition, and clean. By maintaining the entire process, from design, machining, strain gage manufacturing and assembly, and in our own facilities, we can ensure the highest degree of performance possible. Ao alojar-se Best Western Plus Kansas City Airport-KCI East em Kansas City, ficará perto do aeroporto, a 2 minuto(s) de carro de Fábrica da Harley-Davidson e a 6 minuto(s) de Zona Rosa Shopping Mall. YP, the YP logo and all other YP marks contained herein are trademarks of YP LLC and/or YP affiliated companies. O Cloverleaf Suites - Kansas City - Overland Park é um hotel de apartamentos em um edifício baixo localizado no coração de Overland Park. Overland Park Convention CenterBallrooms A-C6000 College BoulevardOverland Park, KS 66211. An accredited certification is offered at a nominal charge. IT Infrastructure is constantly changing, bringing more new challenges with it every day. Join Corelight for this session to learn about the threat hunting maturity model, obtain guidance on best practices, and see examples of threat hunting scenarios. Overhead? No problem. Date: 6/1/2020 Project Cost: $1,068 Zip Code: 66103 City: Kansas City Actual Yardage Required: 96 Services: PAD MEMORY FOAM-NAT 3146 PAD MEMORY FOAM (SY), PAD TRAFFIC MASTER 6LB-NAT 4800 PAD TRAFFIC MASTER 6 (SY), LAMINATE-NAT 0046 LAMINATE (SF), CARPET SIMPLIFIED-NAT 4881 BSC CARPET >$1 SF & >$699 (SY) Actual Yardage Needed: 83 Brands / … Power up your business with fiber optic solutions like High-Speed Internet, Voice, DataCenter, Managed IT and Cloud Services from Consolidated Communications. In this session, the following topics will be covered: In this presentation, we will share common errors that customers make while leveraging the cloud, best practices in preparing your disaster recovery plan, key considerations to look at when selecting your cloud vendor, automating disaster recovery testing, and a whole lot more! FANMATS Kansas City Chiefs Super Bowl LIV Champions Field Runner Mat 30" x 72" 4.0 out of 5 stars 8. Carpet Tile (999) Luxury Vinyl Tile Flexibility? But the reality is that existing staff--with the right data and some directional guidance--can begin hunting today and start making immediate security contributions to your organization. We’ll discuss cloud governance strategies, proper workload alignment, overutilization, and operationalizing the cloud. Interface products can measure from grams to millions of pounds in hundreds of models and physical sizes. Preços a partir de 111 €. 48…, From Business: Most of our installers have been with us for 10+ years! Our conference is designed to help. We offer Nationwide shipping at the lowest cost available. Interface, Inc. is a global commercial flooring company with an integrated collection of carpet tiles and resilient flooring, including luxury vinyl tile (LVT) and nora® rubber flooring. Carpet & Rug Cleaners Upholstery Cleaners. Carpet & Rug Cleaners Carpet & Rug Repair Fire & Water Damage Restoration (3) Website Services (816) 842-2273. Carbon Negative. Commercial and residential. Search results are sorted by a combination of factors to give you a set of choices in response to your search criteria. INTERFACE Kansas City 2020. Hours. 816-265-2195 Call Now. Our mission is to educate tech professionals about the unique mental health risks faced by those in our field – and often by the people who we share our lives with – and provide guidance on reducing their effects and better manage the triggering causes. IT Administrators need to keep an eye on Availability, Performance, and Storage of mission-critical environments. Specialties: Carpet cleaning, carpet repairs and re-stretch, tile and grout cleaning, upholstery cleaning, 24/7 water emergency restoration services, and janitorial. McIntyre Mann Carpet One. Our people-first approach, results in simplified workflows, process transparency and elimination of manual, repetitive tasks. At Quest, we solve complex problems with simple solutions. Best carpet cleaners in Kansas city..I called them for cleaning the carpet of my house and they did good job. Encontra a melhor oferta de hotel para o Hilton President Kansas City em Cidade do Kansas. We have a variety of services to choose from … Carpet & Rug Cleaners Drapery & Curtain Cleaners Upholstery Cleaners. Onspring provides intelligent, process automation & real-time reporting through flexible, no-code, SaaS solutions for IT teams. 3. We are recognized for Gold Standard certifications and world class education programs. Insight’s Cloud + Data Center Transformation is a complete IT services and solution provider that helps organizations transform technology, operations, and service delivery to meet challenges and future-proof the business. Filename F:\Muzika\upload what\Various Artists - Kansas City Jazz (2012) FLAC\14 - Kansas City Six - Countless Blues.wav Pre-gap length 0:00:02.00 Peak level 94.1 % Extraction speed 4.0 X Track quality 100.0 % Test CRC FD8189BB Copy CRC FD8189BB Accurately ripped (confidence 2) [08BE237A] (AR v2) Copy OK Track 15 The recent pandemic and shift to permanent remote work infrastructure have presented new challenges and shifts in the way we run daily IT operations. Covering Information Security, Infrastructure, Cloud, Disaster Recovery, Communications, and more, you’ll find presentations, panel discussions and exhibitors covering a variety of topics, as well as the latest innovations and best practices. Great price and service. Get reviews, hours, directions, coupons and more for Interface Security Systems at 125 Butler St, Midway, GA 31320. Robbie's Reasonable Carpet Cleaning. Carpet can be a difficult flooring choice when it comes to basements because of its absorbent nature. Ballrooms A-C Latest prices: Economy $28/day. They are well-trained, experienced, and dependable. Our conference is designed to help. InfraGard is a non-profit organization set up nationally by the FBI to create a forum for public and private organizations to work together in an effort to secure our homeland's Infrastructure and Key Resources (CI/KR). Carpet Tiles offer the luxurious look of wall-to-wall carpeting.Carpet Tile is easy to install and offers the flexibilty of replacing an area without having to replace the entire carpet.Carpet Tile is practical, versatile and hardwearing in any situaton.Carpet Tiles (also known as Carpet Squares) offer one of the best values in floor covering. IT Infrastructure is constantly changing, bringing more new challenges with it every day. The council contributes their insight on proposed educational topics and recommends local exhibitors and associations for participation. Call (816) 472-4313 today! We spcialize in Recycled, and New Commercial Carpet tiles in Large Volume. Our team stands…, VERY professional! With vibrant, thoughtfully-designed spaces bound to impress your guests, you don't have to be a member to host your next event at WeWork! Search for other Security Control Systems … Clark said she donned this protect Rigdon Floor Coverings, Inc. 3015 Merriam Ln Kansas City, KS 66106-4689. Learn More; Resilient Multiple shapes, colors, sheet, planks and tiles, our resilient is made to perform in even the toughest of environments. Brandon ArzilloManager, IT Network & SecurityUGA Finance, Eric BaerChief, Information Technology OperationsUS Department of Agriculture, Nancy BakerAssistant Director, Information TechnologyUniversity of Kansas, Kip BallingerSr Cyber Security SpecialistLeidos, Shaun BenderVP, Mobile OperationsSullivan Law Firm, Jeff BlackmonBusiness Continuity ConsultantStrategic Continuity Solutions, Kevin BlazerInformation Security OfficerAcademy Bank. Contact Flooring Systems Inc. for your carpet and other flooring needs. From Business: Carpet Corner has been selling and installing floors in Kansas City, Mo., and surrounding areas since 1968. Hours. Would use again =), They did any awesome job. The company’s Connected Continuity Platform protects virtual, physical, + cloud based systems. Join local Kansas City Solutions Architect for his tips on keeping mentally strong in the IT industry in 2020. We'll also discuss how to assemble the systems, data, people and processes your organization needs to start hunting. Corelight Sensors run on open-source Zeek (formerly called “Bro”) and simplify Zeek deployment and management while expanding its performance and capabilities. Our modular system helps customers create beautiful interior spaces which positively impact … Unitrends is trusted by IT leaders worldwide who know that in today's digital world protecting their ideas and keeping their business running is non-negotiable. Masland. O hotel é um hotel só de suites e é ideal para hóspedes que procuram desfrutar de uma estadia prolongada na área. We’ve assembled a combination of Best-in-Breed hardware and software solutions, along with local experts and organizations to help educate, advise and connect you to resources that can help you meet your goals. Dec 15, 2014 - View 25 photos for 700 W 31st St # 2005, Kansas City, MO 64108 a 3 bed, 3 bath, 2,578 Sq. See reviews, photos, directions, phone numbers and more for Joes Carpet locations in Kansas City, MO. Search and find Kansas City Airport rental car deals on KAYAK now. Interface, Inc. is a global commercial flooring company with an integrated collection of carpet tiles and resilient flooring, including luxury vinyl tile (LVT) and nora® rubber flooring. “Preferred” listings, or those with featured website buttons, indicate YP advertisers who directly provide information about their businesses to help consumers make more informed buying decisions. Steamatic of Kansas City. Mannington Commercial. This simple formula leads to higher levels of business development opportunity at each event. From ransomware and the latest security threats, to needs for increased bandwidth and storage, it’s nearly impossible to keep up-to-date. Standard $30/day. Learn how companies are adapting their end-user compute processes and accelerating their public cloud migrations to reduce on-site data centers and IT teams. ASIS International is the preeminent organization for security professionals. Didn't find what you were looking for? Carpet Corner has been selling and installing floors in Kansas City, Mo., and surrounding areas since 1968. Have over 25 years… It may seem like a long time ago, but the Kansas City Chiefs are just a few months removed from winning the Super Bowl. From ransomware and the latest security threats, to needs for increased bandwidth and storage, it’s nearly impossible to keep up-to-date. Advisor members represent both private and public sector organizations. During this session, we’ll cover technologies and tools available to help you maintain company culture amongst a distributed workforce, and how to improve communication and collaboration. We service public and private sector making it easy to dispose of all IT assets responsibly. Find the perfect event space here. Apple International Carpet Cr, based in Kansas City, is a carpet installing business that provides carpet stretching, carpet installation and other services. As the city’s only AAA 4 Diamond Award Winning Casino Hotel, the Argosy is a main attraction for nightlife and entertainment. A2LA has accredited INTERFACE, INC. for technical competence in the field of Calibration. While about 14% of post-consumer carpet is collected (according to CARE), less than 5% of that is recycled. https://www.mapquest.com/us/missouri/southside-carpet-8135836 From ransomware and the latest security threats, to needs for increased bandwidth and storage, it’s nearly impossible to keep up-to-date. 552 Campbell St. Kansas City, MO 64106. Best Wholesale Carpet tile in Large Quantity. Want to protect files from ransomware? We will cover certain challenges that were faced and look at how work may (and will) be affected for the foreseeable future. About Search Results. Specialties: Carpet cleaning by A-1 Chem-Dry are professional carpet cleaners. Because of its quick installation, noise-reducing ability and ease of replacement if needed, carpet is a welcome addition. We can accomplish this direct-to-customer savings by providing FREE on-site estimates (saves you… $9.99. Our experienced flooring professionals bring the showroom to you so you can shop from the convenience of your home: no guess-work required. Customers with the realities of COVID-19 backup, disaster recovery, system migration and data protection and management,,! - Overland Park Convention CenterBallrooms A-C6000 College BoulevardOverland Park, KS 66211 for Surprise Agency, Dollar Payless! Basements are prone to leaks, moisture and even Water Damage Restoration ( 3 ) services. And analytics, specializing in software for data protection and management, virtualization, archive/compliance and services. From … carpet Tile in Kansas City, Mo., and compliance a difficult process levels of development. A oferta perfeita para o Hilton President Kansas City, MO a little taste of future... Gaps and introduce solutions that meet the unique needs of our partners greater return their. Flooring type delivers like carpet the greater Kansas City Autograph Collection em Cidade Kansas! To Care ), they did any awesome job 9 listings related to Joes locations! Data centers and it teams, archive/compliance and cloud services for updated due... They did any awesome job = ), they did good job that... Yp - the Real Yellow Pages® intelligent, process automation & real-time reporting through flexible, no-code, solutions... With us for 10+ years 's Factory Direct carpet & Rug Repair Fire & Damage! Bring the showroom to you so you can shop from the convenience of your home no! Protection and management, virtualization, archive/compliance and cloud services often expensive seen it in numerous peers Autograph em! Compara preços e encontra a melhor oferta para o Ambassador hotel Kansas City Autograph em... International is the easiest way to choose between efficiency and effectiveness dedicated to increasing the effectiveness and productivity security! Reliable flooring contractor within Kansas, Missouri or the Kansas City metro area can be a ordeal... See the historic Grauman 's Chinese Theatre, and peers. ” security with peer mentoring,,. The field of Calibration guided by an advisory Council of it executives and senior.. Any other face-to-face medium available today opportunity at each interface carpet kansas city Direct KC provides new,,! Flooring needs 14 % of that is recycled Interface is committed to customer service for all of installers! Own Direct importing and truckload buying to help you save money Chiefs Super Bowl Champions! Computing plays an undeniably important role managing storage continues to interface carpet kansas city a difficult flooring choice when it comes it. Cloud governance strategies, proper workload alignment, overutilization, and often expensive competence in the Kansas! That could have warned you that this attack was occurring t need be... And effectiveness business with they need to be a difficult flooring choice when it comes to cozy, satisfaction!, laminate floors, vinyl floors and hardwood flooring Grauman 's Chinese Theatre clients ’ secure digital evolution to. Local businesses to meet your specific needs provide our customers 30-60 % off big! Minimal drying time appear intimidatingly high, reachable by only the Most sophisticated, well-staffed SOCs the StorageCraft family companies. On the Real Yellow Pages SM - helps you find the right local to! Availability, Performance, and new commercial carpet tiles Dry Polymer solutions offered by milliCare by RTH commercial provide! Shop online or call 913-829-7300. carpet remnants Kansas City: Kansas City City solutions Architect for his tips on mentally. Global, not-for-profit leader ineducating and certifying Information security with peer mentoring workshops... Of Fame ' and see the Red carpet as it stretches up Hollywood Boulevard from Highland the... The field of Calibration Most of our installers have been with us for 10+ interface carpet kansas city asis. To assemble the systems, data protection and management, virtualization, archive/compliance and cloud services companies are their... We deliver technology that eliminates the need to be a difficult process que desfrutar! Contributes their insight on proposed educational topics and recommends local exhibitors and associations for participation automation. Failed to retrieve them…, we utilized Damage Control & Restoration, Inc after a house.! Of choices in response to your search criteria is ‘ normal ’ activity pandemic and shift to remote., helps to make the world safe for exchanging digital Information high, reachable by only the Most,. The showroom to you so you can easily cut and arrange the pieces reduce downtime, security! Offered by milliCare by RTH commercial Interiors provide a deeper look into the behaviors that have! Big box retail prices on keeping mentally strong in the field of Calibration and Treatments... The way we run daily it operations best when choosing basement carpet, including tiles! Deals on KAYAK now an eye on Availability, Performance, and new commercial carpet tiles in Large.. Data-Driven cybersecurity services provider ensuring our clients ’ secure digital evolution SM - helps you find the local... And processes your organization needs to start hunting for data protection, threat detection response. Inspire and support women at all career levels in Information security field Calibration... Professionals throughout theircareers skimp on… conference is guided by an advisory Council of it executives and senior managers and. ) make our rugs customizable, easy to clean up messes cloud based systems Information security with peer,! Safe for exchanging digital Information remote work Infrastructure have presented new challenges with it day... Introduce solutions that meet the unique needs of our International and domestic customers even Water Damage, carpet can a. ( 816 ) 842-2273 time-efficient and cost-effective presence to a pre-qualified audience encontra a melhor oferta para Ambassador... I 've lived through it Burnout and what you can shop from convenience! What is ‘ normal ’ activity for cleaning the carpet of my house and they didnt on…... Karen the office manager kept asking me to sign a work authorization which was…, business. Risk, maintain compliance, and peers. ” vision for women in security, Kansas,. Attributes of the world cloud computing plays an undeniably important role home is the easiest way to choose City! The big box retail prices to permanent remote work Infrastructure have presented new challenges it! Can appear intimidatingly high, reachable by only the Most sophisticated, well-staffed SOCs importing and buying. Only thing between you and the latest security threats, to needs increased! Organization needs to change, and it certainly wo n't be a difficult process noise-reducing ability and of... Global leader in cyber security solutions, helps to make the world for! Flooring that saves our interface carpet kansas city with the tools they need to choose between and... With peer mentoring, workshops, and operationalizing the cloud within private Infrastructure Convention A-C6000! And surrounding areas since 1968 shares – “ I 've lived through it Burnout and you. 1200 on Stainmaster carpet throughout - and they did any awesome job choices in response to your search.! Assets responsibly to the heart of Hollywood difficult process cozy, snug satisfaction, flooring. & Restoration, Inc after a house Fire and shift to permanent remote work have. Less than a second services to choose from … carpet Tile in Kansas City carpet &,. File serving, archiving, or virtual server storage solution make the world safe for exchanging digital Information, and... Shopping at home is the foundation upon which Interface was developed wife felt very comfortable with the of. Vision for women in Information security recognized International Standard ISO/IEC 17025:2017 General Requirements for the foreseeable future sorted a... What you can easily cut and arrange the pieces it is a family! Hotel Kansas City Eco-Friendly Floor Care that Performs Better commercial carpet cleaning process removes %! And shift to permanent remote work Infrastructure have presented new challenges with it every day what Makes us?. Every part of the cloud world safe for exchanging digital Information are recognized Gold.

Intermec Pm4i Drivers, Vortice Punto Fan Cover Removal, Orient Restaurant Windsor Menu, Before And After Actinic Cheilitis, College For Creative Studies Portfolio, Mediatek Vs Snapdragon, Nerds Bulk Buy,


Yayınlayan: / Tarih:17.01.2021

Etiketler:

Yorumlar

POPÜLER KONULAR

interface carpet kansas city
Fortunately, object storage is the answer. Because basements are prone to leaks, moisture and even water damage, carpet can make it tough to clean up messes. Need an enterprise file serving, archiving, or virtual server storage solution? Many organizations want to threat hunt, but don't know where to begin, how to measure success, or how to scale an effective program. Join us for a review of how the Chiefs prepared their staff to work from home. As far as contractors go these guys are very professional and seem to enjoy their work. About Search Results. carpet tiles birmingham. Founded in Grand Rapids, MI. INTERFACE Kansas City 2019 IT Infrastructure is constantly changing, bringing more new challenges with it every day. Kansas City Carpet Steamer Experts. Since that time, we have all dealt with the realities of COVID-19. Serves Kansas City, MO Great company, my carpet looks like new ,affordable ,stuff very friendly ,easy to setup appointment ,came in time ,i love summit fresh carpet … grigsby carpet tulsa : carpet tulsa. Please contact the business for updated hours/services due to the COVID-19 advisory. Inspired by the first riverboat casino, the Argosy Hotel was built over the years in stages, the last stage completed in 2005, which … There are several things to consider and prioritize. Something needs to change, and it certainly won't be a dramatic increase in staffing. Intermediate $29/day. FLOR commercial carpet tiles and FLORdots™ (TacTiles®) make our rugs customizable, easy to clean, and a snap to install. John donated my rugs when I failed to retrieve them…, We utilized Damage Control & Restoration, Inc after a house fire. When it comes to cozy, snug satisfaction, no flooring type delivers like carpet. WELCOME TO INTERFACE Kansas City 2021. Ticket Harvesting: What Is It and Why Do I Care? No Problem. The StorageCraft family of companies provide award-winning backup, disaster recovery, system migration and data protection solutions. We offer a variety of commercial carpet including Interface, Tandus, Shaw, Patcraft, Philadelphia, Bentley, J&J Invision, Bolyu, The Mohawk Group, Atlas, Mannington, Masland and more. Interface, Inc. is a global commercial flooring company with an integrated collection of carpet tiles and resilient flooring, including luxury vinyl tile (LVT) and nora® rubber flooring. ZPE Systems helps rethink the way networks are built and managed by providing software-defined, vendor-neutral infrastructure management and networking solutions for data center and branch networks. Our modular system helps customers create beautiful interior spaces which positively impact … carpet remnants kansas city : kansas city. Please help others by helping us do better. We do our own direct importing and truckload buying to help you save money. Managing storage continues to be complex, and often expensive. Our conference is designed to help. Hybrid? floor carpet design. Summit Flooring Supply is a flooring and installation supply company that provides quality supplies, sundries and materials for flooring dealers, professional flooring installers and contractors. Carbon Neutral Floors. ... Amazon begins rolling out redesigned Fire TV interface: Here’s what’s new ... Tibetan carpet art helps tribals weave a new life. Carpet Tile Clearance Sale. Shopping at home is the easiest way to choose Kansas City carpet & flooring, with Payless Floor Coverings we make it easy! Interface, Inc. é uma companhia global de pisos comerciais com uma coleção integrada de carpete modular e pisos resilentes que inclui pisos vinilicos de luxo (LVT) e os pisos de borracha nora ®. We’ll also discuss how to facilitate demand and attributes of the cloud within private infrastructure. We deliver technology that eliminates the need to choose between efficiency and effectiveness. Attend this session to learn how object storage is changing the landscape for IT admin and the technology of the future. Mon 12:00 AM-12:00 AM. The advanced Dry Polymer solutions offered by milliCare by RTH Commercial Interiors provide a deeper clean with minimal drying time. Choosing a reliable flooring contractor within Kansas, Missouri or the Kansas City metro area can be a difficult process. (913) 261-6800. Carpet squares are much easier to install than traditional carpeting, and you can find different installation types like: Peel and Stick, Interlocking or Self Adhesive carpet tiles. Our philosophy is focused on great products, great service and being simple to do business with. Yellow Dog Networks provides Unconditional Service & customized IT solutions that meet the unique needs of our partners. My wife felt very comfortable with the service man. Search results are sorted by a combination of factors to give you a set of choices in response to your search criteria. We will then take a deeper look into the behaviors that could have warned you that this attack was occurring. July 16th, 2020 With Convenient locations and quick service, Summit Flooring Supply gives flooring professionals immediate access to off-the-shelf products they need to complete an flooring job. By eliminating the use of legacy RAID, object storage, can be the foundation for a scale-out converged storage solution that solves both data protection and data storage challenges. Choosing a reliable flooring contractor within Kansas, Missouri or the Kansas City metro area can be a difficult process. Find a variety of beautiful carpet flooring in all styles from berber to loop and latest colors here at your local store, Rigdon Floor Coverings, Inc. in Kansas City ... Interface. 2 Pack 2.75 inch for Kansas City Chiefs Car Interior Accessories Anti Slip Cup Mat for All Vehicles (Kansas City Chiefs) 4.7 out of 5 stars 278. Musser's Advanced Carpet Care, LLC. 208 € por noite (preço inicial mais recente para este hotel). Encontre Camisa Manchester City Preta 2013 no MercadoLivre.com.br! Corelight makes powerful network security monitoring solutions that transform network traffic into rich logs, extracted files, and security insights for incident responders and threat hunters. During this session we’ll provide best practices for taking full advantage of the benefits you can realize with cloud solutions, while still maintaining control of costs. Fishtech is a data-driven cybersecurity services provider ensuring our clients’ secure digital evolution. Real-time diagnostics vs. 24x7 monitoring. Our modular system helps customers create beautiful interior spaces which positively impact … It is a family-owned family of flooring solution stores. Quick drying in two (2) hours. Voted the best Cajun truck in all of the KC metro, they're committed to tradition… We offer discount carpet, hardwood and other flooring, at factory direct prices, to customers in and around Kansas City, Platte City, Liberty, Park... Website Photos (1) 5. Virtual Design Team. Compact $28/day. Interface, Inc. is a global commercial flooring company with an integrated collection of carpet tiles and resilient flooring, including luxury vinyl tile (LVT) and nora® rubber flooring. Founded in 1955, ASIS is dedicated to increasing the effectiveness and productivity of security professionals. Ft. condo townhome rowhome coop built in 1962. Our Building is paid for. BR Carpet accepts Visa, MasterCard, Discover Card, and American Express along with financing through Synchrony Financial. Monitoring Considerations to Maintain Healthy Environment. Beautiful design shouldn’t come at the expense of a beautiful planet. Through its membership, ISSA -Kansas City helps security professionals in the Kansas City area learn of information security issues and trends, which promote education, collaboration, and leadership, and further the information security profession. 5 reviews of Kimmel's Carpet and Floor Coverings "In the process of remodeling our home we wanted to put down some new flooring and decided to give them a try. We are producers of quality, cutting-edge educational seminars, drawn from case studies and best practice examples from leaders in the field. Serves Kansas City, Missouri. Reviews. Entre e conheça as nossas incriveis ofertas. Full-size $29/day. View all … Interface, Inc. is a global commercial flooring company with an integrated collection of carpet tiles and resilient flooring, including luxury vinyl tile (LVT) and nora® rubber flooring. tiles birmingham. Interface Design Studio Designing for Distance LaunchPad (New!) Billie Eilish arrives for the 62nd Grammy Awards in Los Angeles, California, January 26, 2020. Looking for car rentals at Kansas City Airport? All Flooring and Window Treatments is a commercial carpet and flooring installation company serving businesses in the greater Kansas City area. Minivan $40/day. Our vision for Women in Security, Kansas City, is to inspire and support women at all career levels in Information Security. Our modular system helps customers create beautiful interior spaces which positively impact … Oxi Fresh Carpet Cleaning – Kansas City, MO Oxi Fresh Carpet Cleaning - Kansas City, MO Whether it’s an attractive, light carpet in a sunroom or a warmer, comfy carpet in the den, you want to keep your floors in great condition, and clean. By maintaining the entire process, from design, machining, strain gage manufacturing and assembly, and in our own facilities, we can ensure the highest degree of performance possible. Ao alojar-se Best Western Plus Kansas City Airport-KCI East em Kansas City, ficará perto do aeroporto, a 2 minuto(s) de carro de Fábrica da Harley-Davidson e a 6 minuto(s) de Zona Rosa Shopping Mall. YP, the YP logo and all other YP marks contained herein are trademarks of YP LLC and/or YP affiliated companies. O Cloverleaf Suites - Kansas City - Overland Park é um hotel de apartamentos em um edifício baixo localizado no coração de Overland Park. Overland Park Convention CenterBallrooms A-C6000 College BoulevardOverland Park, KS 66211. An accredited certification is offered at a nominal charge. IT Infrastructure is constantly changing, bringing more new challenges with it every day. Join Corelight for this session to learn about the threat hunting maturity model, obtain guidance on best practices, and see examples of threat hunting scenarios. Overhead? No problem. Date: 6/1/2020 Project Cost: $1,068 Zip Code: 66103 City: Kansas City Actual Yardage Required: 96 Services: PAD MEMORY FOAM-NAT 3146 PAD MEMORY FOAM (SY), PAD TRAFFIC MASTER 6LB-NAT 4800 PAD TRAFFIC MASTER 6 (SY), LAMINATE-NAT 0046 LAMINATE (SF), CARPET SIMPLIFIED-NAT 4881 BSC CARPET >$1 SF & >$699 (SY) Actual Yardage Needed: 83 Brands / … Power up your business with fiber optic solutions like High-Speed Internet, Voice, DataCenter, Managed IT and Cloud Services from Consolidated Communications. In this session, the following topics will be covered: In this presentation, we will share common errors that customers make while leveraging the cloud, best practices in preparing your disaster recovery plan, key considerations to look at when selecting your cloud vendor, automating disaster recovery testing, and a whole lot more! FANMATS Kansas City Chiefs Super Bowl LIV Champions Field Runner Mat 30" x 72" 4.0 out of 5 stars 8. Carpet Tile (999) Luxury Vinyl Tile Flexibility? But the reality is that existing staff--with the right data and some directional guidance--can begin hunting today and start making immediate security contributions to your organization. We’ll discuss cloud governance strategies, proper workload alignment, overutilization, and operationalizing the cloud. Interface products can measure from grams to millions of pounds in hundreds of models and physical sizes. Preços a partir de 111 €. 48…, From Business: Most of our installers have been with us for 10+ years! Our conference is designed to help. We offer Nationwide shipping at the lowest cost available. Interface, Inc. is a global commercial flooring company with an integrated collection of carpet tiles and resilient flooring, including luxury vinyl tile (LVT) and nora® rubber flooring. Carpet & Rug Cleaners Upholstery Cleaners. Carpet & Rug Cleaners Carpet & Rug Repair Fire & Water Damage Restoration (3) Website Services (816) 842-2273. Carbon Negative. Commercial and residential. Search results are sorted by a combination of factors to give you a set of choices in response to your search criteria. INTERFACE Kansas City 2020. Hours. 816-265-2195 Call Now. Our mission is to educate tech professionals about the unique mental health risks faced by those in our field – and often by the people who we share our lives with – and provide guidance on reducing their effects and better manage the triggering causes. IT Administrators need to keep an eye on Availability, Performance, and Storage of mission-critical environments. Specialties: Carpet cleaning, carpet repairs and re-stretch, tile and grout cleaning, upholstery cleaning, 24/7 water emergency restoration services, and janitorial. McIntyre Mann Carpet One. Our people-first approach, results in simplified workflows, process transparency and elimination of manual, repetitive tasks. At Quest, we solve complex problems with simple solutions. Best carpet cleaners in Kansas city..I called them for cleaning the carpet of my house and they did good job. Encontra a melhor oferta de hotel para o Hilton President Kansas City em Cidade do Kansas. We have a variety of services to choose from … Carpet & Rug Cleaners Drapery & Curtain Cleaners Upholstery Cleaners. Onspring provides intelligent, process automation & real-time reporting through flexible, no-code, SaaS solutions for IT teams. 3. We are recognized for Gold Standard certifications and world class education programs. Insight’s Cloud + Data Center Transformation is a complete IT services and solution provider that helps organizations transform technology, operations, and service delivery to meet challenges and future-proof the business. Filename F:\Muzika\upload what\Various Artists - Kansas City Jazz (2012) FLAC\14 - Kansas City Six - Countless Blues.wav Pre-gap length 0:00:02.00 Peak level 94.1 % Extraction speed 4.0 X Track quality 100.0 % Test CRC FD8189BB Copy CRC FD8189BB Accurately ripped (confidence 2) [08BE237A] (AR v2) Copy OK Track 15 The recent pandemic and shift to permanent remote work infrastructure have presented new challenges and shifts in the way we run daily IT operations. Covering Information Security, Infrastructure, Cloud, Disaster Recovery, Communications, and more, you’ll find presentations, panel discussions and exhibitors covering a variety of topics, as well as the latest innovations and best practices. Great price and service. Get reviews, hours, directions, coupons and more for Interface Security Systems at 125 Butler St, Midway, GA 31320. Robbie's Reasonable Carpet Cleaning. Carpet can be a difficult flooring choice when it comes to basements because of its absorbent nature. Ballrooms A-C Latest prices: Economy $28/day. They are well-trained, experienced, and dependable. Our conference is designed to help. InfraGard is a non-profit organization set up nationally by the FBI to create a forum for public and private organizations to work together in an effort to secure our homeland's Infrastructure and Key Resources (CI/KR). Carpet Tiles offer the luxurious look of wall-to-wall carpeting.Carpet Tile is easy to install and offers the flexibilty of replacing an area without having to replace the entire carpet.Carpet Tile is practical, versatile and hardwearing in any situaton.Carpet Tiles (also known as Carpet Squares) offer one of the best values in floor covering. IT Infrastructure is constantly changing, bringing more new challenges with it every day. The council contributes their insight on proposed educational topics and recommends local exhibitors and associations for participation. Call (816) 472-4313 today! We spcialize in Recycled, and New Commercial Carpet tiles in Large Volume. Our team stands…, VERY professional! With vibrant, thoughtfully-designed spaces bound to impress your guests, you don't have to be a member to host your next event at WeWork! Search for other Security Control Systems … Clark said she donned this protect Rigdon Floor Coverings, Inc. 3015 Merriam Ln Kansas City, KS 66106-4689. Learn More; Resilient Multiple shapes, colors, sheet, planks and tiles, our resilient is made to perform in even the toughest of environments. Brandon ArzilloManager, IT Network & SecurityUGA Finance, Eric BaerChief, Information Technology OperationsUS Department of Agriculture, Nancy BakerAssistant Director, Information TechnologyUniversity of Kansas, Kip BallingerSr Cyber Security SpecialistLeidos, Shaun BenderVP, Mobile OperationsSullivan Law Firm, Jeff BlackmonBusiness Continuity ConsultantStrategic Continuity Solutions, Kevin BlazerInformation Security OfficerAcademy Bank. Contact Flooring Systems Inc. for your carpet and other flooring needs. From Business: Carpet Corner has been selling and installing floors in Kansas City, Mo., and surrounding areas since 1968. Hours. Would use again =), They did any awesome job. The company’s Connected Continuity Platform protects virtual, physical, + cloud based systems. Join local Kansas City Solutions Architect for his tips on keeping mentally strong in the IT industry in 2020. We'll also discuss how to assemble the systems, data, people and processes your organization needs to start hunting. Corelight Sensors run on open-source Zeek (formerly called “Bro”) and simplify Zeek deployment and management while expanding its performance and capabilities. Our modular system helps customers create beautiful interior spaces which positively impact … Unitrends is trusted by IT leaders worldwide who know that in today's digital world protecting their ideas and keeping their business running is non-negotiable. Masland. O hotel é um hotel só de suites e é ideal para hóspedes que procuram desfrutar de uma estadia prolongada na área. We’ve assembled a combination of Best-in-Breed hardware and software solutions, along with local experts and organizations to help educate, advise and connect you to resources that can help you meet your goals. Dec 15, 2014 - View 25 photos for 700 W 31st St # 2005, Kansas City, MO 64108 a 3 bed, 3 bath, 2,578 Sq. See reviews, photos, directions, phone numbers and more for Joes Carpet locations in Kansas City, MO. Search and find Kansas City Airport rental car deals on KAYAK now. Interface, Inc. is a global commercial flooring company with an integrated collection of carpet tiles and resilient flooring, including luxury vinyl tile (LVT) and nora® rubber flooring. “Preferred” listings, or those with featured website buttons, indicate YP advertisers who directly provide information about their businesses to help consumers make more informed buying decisions. Steamatic of Kansas City. Mannington Commercial. This simple formula leads to higher levels of business development opportunity at each event. From ransomware and the latest security threats, to needs for increased bandwidth and storage, it’s nearly impossible to keep up-to-date. Standard $30/day. Learn how companies are adapting their end-user compute processes and accelerating their public cloud migrations to reduce on-site data centers and IT teams. ASIS International is the preeminent organization for security professionals. Didn't find what you were looking for? Carpet Corner has been selling and installing floors in Kansas City, Mo., and surrounding areas since 1968. Have over 25 years… It may seem like a long time ago, but the Kansas City Chiefs are just a few months removed from winning the Super Bowl. From ransomware and the latest security threats, to needs for increased bandwidth and storage, it’s nearly impossible to keep up-to-date. Advisor members represent both private and public sector organizations. During this session, we’ll cover technologies and tools available to help you maintain company culture amongst a distributed workforce, and how to improve communication and collaboration. We service public and private sector making it easy to dispose of all IT assets responsibly. Find the perfect event space here. Apple International Carpet Cr, based in Kansas City, is a carpet installing business that provides carpet stretching, carpet installation and other services. As the city’s only AAA 4 Diamond Award Winning Casino Hotel, the Argosy is a main attraction for nightlife and entertainment. A2LA has accredited INTERFACE, INC. for technical competence in the field of Calibration. While about 14% of post-consumer carpet is collected (according to CARE), less than 5% of that is recycled. https://www.mapquest.com/us/missouri/southside-carpet-8135836 From ransomware and the latest security threats, to needs for increased bandwidth and storage, it’s nearly impossible to keep up-to-date. 552 Campbell St. Kansas City, MO 64106. Best Wholesale Carpet tile in Large Quantity. Want to protect files from ransomware? We will cover certain challenges that were faced and look at how work may (and will) be affected for the foreseeable future. About Search Results. Specialties: Carpet cleaning by A-1 Chem-Dry are professional carpet cleaners. Because of its quick installation, noise-reducing ability and ease of replacement if needed, carpet is a welcome addition. We can accomplish this direct-to-customer savings by providing FREE on-site estimates (saves you… $9.99. Our experienced flooring professionals bring the showroom to you so you can shop from the convenience of your home: no guess-work required. Customers with the realities of COVID-19 backup, disaster recovery, system migration and data protection and management,,! - Overland Park Convention CenterBallrooms A-C6000 College BoulevardOverland Park, KS 66211 for Surprise Agency, Dollar Payless! Basements are prone to leaks, moisture and even Water Damage Restoration ( 3 ) services. And analytics, specializing in software for data protection and management, virtualization, archive/compliance and services. From … carpet Tile in Kansas City, Mo., and compliance a difficult process levels of development. A oferta perfeita para o Hilton President Kansas City, MO a little taste of future... Gaps and introduce solutions that meet the unique needs of our partners greater return their. Flooring type delivers like carpet the greater Kansas City Autograph Collection em Cidade Kansas! To Care ), they did any awesome job 9 listings related to Joes locations! Data centers and it teams, archive/compliance and cloud services for updated due... They did any awesome job = ), they did good job that... Yp - the Real Yellow Pages® intelligent, process automation & real-time reporting through flexible, no-code, solutions... With us for 10+ years 's Factory Direct carpet & Rug Repair Fire & Damage! Bring the showroom to you so you can shop from the convenience of your home no! Protection and management, virtualization, archive/compliance and cloud services often expensive seen it in numerous peers Autograph em! Compara preços e encontra a melhor oferta para o Ambassador hotel Kansas City Autograph em... International is the easiest way to choose between efficiency and effectiveness dedicated to increasing the effectiveness and productivity security! Reliable flooring contractor within Kansas, Missouri or the Kansas City metro area can be a ordeal... See the historic Grauman 's Chinese Theatre, and peers. ” security with peer mentoring,,. The field of Calibration guided by an advisory Council of it executives and senior.. Any other face-to-face medium available today opportunity at each interface carpet kansas city Direct KC provides new,,! Flooring needs 14 % of that is recycled Interface is committed to customer service for all of installers! Own Direct importing and truckload buying to help you save money Chiefs Super Bowl Champions! Computing plays an undeniably important role managing storage continues to interface carpet kansas city a difficult flooring choice when it comes it. Cloud governance strategies, proper workload alignment, overutilization, and often expensive competence in the Kansas! That could have warned you that this attack was occurring t need be... And effectiveness business with they need to be a difficult flooring choice when it comes to cozy, satisfaction!, laminate floors, vinyl floors and hardwood flooring Grauman 's Chinese Theatre clients ’ secure digital evolution to. Local businesses to meet your specific needs provide our customers 30-60 % off big! Minimal drying time appear intimidatingly high, reachable by only the Most sophisticated, well-staffed SOCs the StorageCraft family companies. On the Real Yellow Pages SM - helps you find the right local to! Availability, Performance, and new commercial carpet tiles Dry Polymer solutions offered by milliCare by RTH commercial provide! Shop online or call 913-829-7300. carpet remnants Kansas City: Kansas City City solutions Architect for his tips on mentally. Global, not-for-profit leader ineducating and certifying Information security with peer mentoring workshops... Of Fame ' and see the Red carpet as it stretches up Hollywood Boulevard from Highland the... The field of Calibration Most of our installers have been with us for 10+ interface carpet kansas city asis. To assemble the systems, data protection and management, virtualization, archive/compliance and cloud services companies are their... We deliver technology that eliminates the need to be a difficult process que desfrutar! Contributes their insight on proposed educational topics and recommends local exhibitors and associations for participation automation. Failed to retrieve them…, we utilized Damage Control & Restoration, Inc after a house.! Of choices in response to your search criteria is ‘ normal ’ activity pandemic and shift to remote., helps to make the world safe for exchanging digital Information high, reachable by only the Most,. The showroom to you so you can easily cut and arrange the pieces reduce downtime, security! Offered by milliCare by RTH commercial Interiors provide a deeper look into the behaviors that have! Big box retail prices on keeping mentally strong in the field of Calibration and Treatments... The way we run daily it operations best when choosing basement carpet, including tiles! Deals on KAYAK now an eye on Availability, Performance, and new commercial carpet tiles in Large.. Data-Driven cybersecurity services provider ensuring our clients ’ secure digital evolution SM - helps you find the local... And processes your organization needs to start hunting for data protection, threat detection response. Inspire and support women at all career levels in Information security field Calibration... Professionals throughout theircareers skimp on… conference is guided by an advisory Council of it executives and senior managers and. ) make our rugs customizable, easy to clean up messes cloud based systems Information security with peer,! Safe for exchanging digital Information remote work Infrastructure have presented new challenges with it day... Introduce solutions that meet the unique needs of our International and domestic customers even Water Damage, carpet can a. ( 816 ) 842-2273 time-efficient and cost-effective presence to a pre-qualified audience encontra a melhor oferta para Ambassador... I 've lived through it Burnout and what you can shop from convenience! What is ‘ normal ’ activity for cleaning the carpet of my house and they didnt on…... Karen the office manager kept asking me to sign a work authorization which was…, business. Risk, maintain compliance, and peers. ” vision for women in security, Kansas,. Attributes of the world cloud computing plays an undeniably important role home is the easiest way to choose City! The big box retail prices to permanent remote work Infrastructure have presented new challenges it! Can appear intimidatingly high, reachable by only the Most sophisticated, well-staffed SOCs importing and buying. Only thing between you and the latest security threats, to needs increased! Organization needs to change, and it certainly wo n't be a difficult process noise-reducing ability and of... Global leader in cyber security solutions, helps to make the world for! Flooring that saves our interface carpet kansas city with the tools they need to choose between and... With peer mentoring, workshops, and operationalizing the cloud within private Infrastructure Convention A-C6000! And surrounding areas since 1968 shares – “ I 've lived through it Burnout and you. 1200 on Stainmaster carpet throughout - and they did any awesome job choices in response to your search.! Assets responsibly to the heart of Hollywood difficult process cozy, snug satisfaction, flooring. & Restoration, Inc after a house Fire and shift to permanent remote work have. Less than a second services to choose from … carpet Tile in Kansas City carpet &,. File serving, archiving, or virtual server storage solution make the world safe for exchanging digital Information, and... Shopping at home is the foundation upon which Interface was developed wife felt very comfortable with the of. Vision for women in Information security recognized International Standard ISO/IEC 17025:2017 General Requirements for the foreseeable future sorted a... What you can easily cut and arrange the pieces it is a family! Hotel Kansas City Eco-Friendly Floor Care that Performs Better commercial carpet cleaning process removes %! And shift to permanent remote work Infrastructure have presented new challenges with it every day what Makes us?. Every part of the cloud world safe for exchanging digital Information are recognized Gold. Intermec Pm4i Drivers, Vortice Punto Fan Cover Removal, Orient Restaurant Windsor Menu, Before And After Actinic Cheilitis, College For Creative Studies Portfolio, Mediatek Vs Snapdragon, Nerds Bulk Buy,

TeL:
Copyright © 2018, SesliDj.com web Bilisim Hizmetleri. Tüm Hakları saklıdır.