Cheap Houses For Sale > Northern Ireland, Air Bottle Refill Near Me, Homemade Pineapple Gin Recipe, Slow Cooker Seafood Cioppino, Cranberry Ginger Ale Costco, Commitment Contract Template, Lasalle Bakery Hours, Social Reality Meaning Tagalog, Gloomhaven Character Trays, Ok Connery Trailer, Nashville Toffee Company Coupon, " /> Cheap Houses For Sale > Northern Ireland, Air Bottle Refill Near Me, Homemade Pineapple Gin Recipe, Slow Cooker Seafood Cioppino, Cranberry Ginger Ale Costco, Commitment Contract Template, Lasalle Bakery Hours, Social Reality Meaning Tagalog, Gloomhaven Character Trays, Ok Connery Trailer, Nashville Toffee Company Coupon, " />
iletişim:

perfume de mujer song

perfume de mujer song

Like john bee I'd prefer hearing the final product, unless you're going for a song about process. ♬ Perfume de Mujer | 1 Posts. Spanish music album The Roots Of Tango - Dos Corazones. starts and ends within the same node. Note: When you embed the widget in your site, it will match your site's styles (CSS). That's clearly amusing. Perfume De Mujer song by Francisco Canaro now on JioSaavn. Perfume de mujer flotando por el arrabal Pretty cool. Free Shipping by Amazon . Nuestra empresa Envío Aviso legal Términos y condiciones Sobre nosotros Pago seguro Contacte con nosotros Mapa del sitio Tiendas Últimas noticias Últimas noticias 3 jul tu historia, nuestra historia. José Valotta. 1. Department. Listen to albums and songs from Perfume Con Aroma De Mujer. Highlight. Maybe that people don't want to have to sign up for a Spotify account to listen to one song. Perfume de mujer, flotando por el arrabal Artists - O. Otros Aires Lyrics. Perfume De Mujer Chords by Jordano. Angela has the chops for sure, the whole tune is excellent. Also, if you have your singer OvEr PrOnOuNcE words it'll translate as gravitas. MwSt.) Grey's Anatomy. Lo Mejor de Canal Sony En Grey Sloan Memorial no hay escasez de drama. Perfume de Mujer. Жанр - Lounge. Como la vida que se va, detrás 2019-01-03T13:04:11Z Buy El Club de la Noche: Perfume de Mujer. Angela has the chops for sure, the whole tune is excellent. I certainly want to know the final result, but I have to tell you that I just enjoyed watching the session! Lanc ô me : La vie est belle, para una noche romantica No estaba, no estoy, me he perdido Y es que salí volando hacia la luz de otro destino Mas absurdo que la vida, tan vulgar como mi suerte. 4 Album. En Grey Sloan Memorial no hay escasez de drama. Nur für kurze Zeit. She's an excellent vocalist. Lyricapsule: The Surfaris Drop ‘Wipe Out’; June 22, 1963, Lyricapsule: The Byrds Drop ‘Mr. Yo soy aquel que lució como blasón su moño volador y que cenó, en sus noches de infortunio, con pan de plenilunio y vino de ilusión. We constantly hold our works up to the bar that is finished commercial product, and certainly we should and must. Höre Perfume De Mujer Tango von Various Artists auf Deezer. My sister promptly handed it over to me when the Beatles Anthology CD came out. I would prefer, though, to hear it as a finished product. $9.49 — Audio CD, January 4, 2012 "Please retry" $15.99 . Series. Perfumes & Fragrances; Women's Eau de Parfum; Women's Eau de Toilette; Women's Fragrance Sets; Body Moisturizers; Deodorants & Antiperspirants; Women's Satchel Handbags; … AdoroCinema. Un estudiante de preparatoria en necesidad de dinero acepta cuidar un hombre ciego, pero el trabajo no es para nada lo que esperaba. https://open.spotify.com/track/3nA36U5EyTFpNh5EnBvVcZ. She hated the takes that weren't perfect; I loved it! Solo me fui volando hacia su olor, desesperadamente Not like my recording sessions where I always worry if my neighbor will start up his lawnmower. FJ When the Beatles anthology CD came out my sister handed it off to me instantly. Perfume de Mujer Tango Various Artists (Artist) Format: Audio CD. FJ Lamela, October 20, 2019 in Songs. Ex. Yo soy aquel muchacho soñador que hallaste tú, cargado con la anemia de su vida bohemia, de ensueño y de dolor. Perfume de Mujer (“Women’s perfume”) is an electro pop Spanish song, which tells the pain of heartbreak, the bad plays of memories and the pain of forgetting.Performed by Angela de la Cruz. Put it up on Soundcloud, Soundclick or Bandcamp (all free). July 2013 EUR 8,99 (Alle Preisangaben inkl. Pretty cool. Angela certainly has the chops, the entire tune is perfect. Reminded me of Basia, whom I love. te quise tanto mi dulce amada en aquel auto junto a tu casa me dabas de tu amor mientras hablabas sin tener miedo a la madrugada tu piel dorada olia a rosas y con tus labios me acariciabas mi amor y tu perfume de mujer enciende las ansias prohibidas en cada trazo de mi piel mi amor pagando por tu desnudez puede que sea mentira mas no … Certainly I want to hear the finished product, but I gotta tell ya I really enjoyed watching the session! Powered by Invision Community, Cakewalk by BandLab: Early Access Program. Tambourine Man’; June 21, 1965, Lyricapsule: Nirvana Drop ‘Bleach’; June 15, 1989, Lyricapsule: Derek and the Dominos’ First Gig; June 14, 1970. 29. Perfume De Mujer – 13.FM 92.5.wav" WAVE INDEX 01 00:00:00 TRACK 14 AUDIO TITLE "14.Cocuyo" PERFORMER "Perfume De Mujer" INDEX 00 05:04:72 FILE "14. Artist: Otros Aires . Listen to Perfume De Mujer by Hector Rey, 18 Shazams. By Users who like El Club de la Noche: Perfume de Mujer. Reminded me of Basia, whom I love give gift of perfume, here is the ideas..  Also, when you have your singer OvEr PrOnOuNcE words it'll translate as gravitas. Heyo! Not like my recording sessions where I always worry if my neighbor will start up his lawnmower. Perfume De Mujer – … We keep our job continually up to the bar that is the finished commercial product, and we can and must undoubtedly. Mujer, ¿te acuerdas de mi? Album: 4. Thanks a lot for listen!. Sobre Perfume de Mujer . to know that "polished" works, take hard work, and not every take is "perfect". Para que no te compliques te damos la lista de los 10 mejores perfumes de mujer que harán muy feliz a cualquiera mujer. Watch short videos with music Perfume de Mujer on TikTok. Автор - Otros Aires. Every aspect of it from the arrangement down to the young lady's vocal work is top notch. FJ All customers get FREE Shipping on orders over $25 shipped by Amazon. Y a rodar cuesta abajo otra vez por el propio precipicio Make sure your selection OK.  Now you have a video which I can watch and hear the song. Publicidad. No te pierdas nuestras ofertas exclusivas con tarjeta Hites y agenda hoy tu despacho. But it is refreshing Perfume De Mujer – 12.Fabricamos un Arte Especial en un Medio Hostil a los Sonadores.wav" WAVE INDEX 01 00:00:00 TRACK 13 AUDIO TITLE "13.FM 92.5" PERFORMER "Perfume De Mujer" INDEX 00 15:29:48 FILE "13. Thanks for sharing. which tells the pain of heartbreak, the bad plays of memories and the pain of forgetting.Performed by Angela de la Cruz. Soul Rock Español, Bandas de Rhythm and Blues Españolas. Mas frágil que el amor, leve como el sueño de una flor Como estas frases que ya no, no están Listen to Perfume de Mujer (Tangología Para Escuchar y Bailar) by Various Artists on Deezer. Perfume de mujer en tu camisa Songtext von Gisselle mit Lyrics, deutscher Übersetzung, Musik-Videos und Liedtexten kostenlos auf Songtexte.com Que me emociona sin razón, cuando se va I heard this song before but I can't remember where, hhhmmm? Find album reviews, stream songs, credits and award information for Me Puse Perfume - Aroma de Mujer on AllMusic - 2004 Длительность – 03:50. Según el número de compradores en los últimos meses, triunfan las fragancias clásicas, frescas, florales y cítricas Thanks for sharing. Parfums d' parfums isidorita 177 Providencia Santiago Chile +56 6006000066 pedidos@parfums.cl Productos. Nur für Neukunden. ¡Cálida y fiel, boca de miel que puso el alma en el besar! to know that "polished" works, take hard work, and not every take is "perfect". Bedingungen gelten. Download song or listen online free, only on JioSaavn. When the Beatles anthology CD came out my sister handed it off to me instantly. 1-16 of 507 results for "perfume para mujer" Skip to main search results Eligible for Free Shipping. Edited November 8, 2019 by FJ Lamela Join Napster and access full-length songs on your phone, computer or home audio device. See all 2 formats and editions Hide other formats and editions. Perfume de mujer, flotando por el arrabal Perfume de mujer, flotando por el arrabal Cuando se va, Otros Aires Lyrics provided by SongLyrics.com. RIFF-it good. No puedo, lo juro, yo nunca pude ♬ Perfume de Mujer | 0 Posts. Jetzt Angebot sichern Jetzt Angebot sichern und über 60 Millionen Songs unbegrenzt streamen mit Amazon Music Unlimited. Y a subir y a subir, junto al maleficio. Perfumes Mujer al mejor precio solo en Hites.com ¡Aprovecha ahora!. Learn to play guitar by chord / tabs using chord diagrams, transpose the key, watch video lessons and much more. Like john bee I'd decide upon listening to the final product, unless you are going for a song approximately process. Watch short videos with music Perfume de Mujer on TikTok. Perfume de Mujer (“Women’s perfume”) is an electro pop Spanish song . This is just a preview! She hated taking something that wasn't perfect; I loved it! Скачать бесплатно и слушать онлайн Perfume De Mujer. Perfume de Mulher um filme de Martin Brest com Al Pacino, Chris O'Donnell. Cannot annotate a non-flat selection. Tan cruel como el adiós, triste como el alma del cantor Listen to Perfume De Mujer by Comisario Pantera, 1,060 Shazams. An annotation cannot contain another annotation. Que me emociona hasta el dolor, cuando no esta It's refreshing, but, It takes hard work to know that "polished" works, and not every take is "great.". Видеоклип. Perfume De Mujer biography A Havana-based RIO combo PERFUME DE MUJER, founded around a Cuban multi-instrumentalist Abel Omar PEREZ and a guitarist / keyboardist Orlando 'Landi' BERNAL, were active during 1990s, like another Cuban avantgarde act MUSICA D'REPUESTO.They had released three albums - "Variaciones En La Cuerda Vol. Perfume de mujer…(que me emociona sin razón) Certainly I want to hear the finished product, but I gotta tell ya I really enjoyed watching the session! Werbefrei streamen oder als CD und MP3 kaufen bei Amazon.de. She's an excellent vocalist. Perfume De Mujer Lyrics. Notas dos Filmes. I would prefer, though, to hear it as a finished product. Song Lyrics. Listen to Perfume de Mujer by Kayma on Apple Music. Estrena en febrero. Формат – mp3. : Jumanji 2, Top Gun 2, Mulher-Maravilha 1984, Mulan. Productos Ofertas Novedades Los más vendidos Nuestra empresa. Tu recordación sume al corazón en negro abismo de pesar. Connect to Apple Music to play songs in full within Shazam. You will be able to leave a comment after signing in, Copyright © 2020 BandLab Technologies That's really fun. Love Song de Versailles es una fragancia de la familia olfativa Almizcle Floral Amaderado para Mujeres.Love Song se lanzó en 2018. I love the song. Listen Now with Amazon Music : Perfume De Mujer Tango "Please retry" Amazon Music Unlimited: Price New from Used from MP3 Music, February 25, 2011 "Please retry" $9.49 . Find album reviews, stream songs, credits and award information for Perfume de Mujer - Karina on AllMusic - 2006 Review: RIFF-it. Me puse perfume Songtext von Aroma de Mujer mit Lyrics, deutscher Übersetzung, Musik-Videos und Liedtexten kostenlos auf Songtexte.com Otros Aires - Perfume De Mujer Lyrics. Pero me fui volando hacia el rumor de ese perfume Nueva temporada. But it is refreshing Stream songs including "Abrázame", "Perfume de Mujer" and more. SONGLYRICS just got interactive. No estaba, no estoy, me he perdido Mas absurdo que la vida, tan vulgar como mi suerte. Belleza Estos son los mejores perfumes de mujer más vendidos en España. Entdecken Sie Perfume de mujer von Various artists bei Amazon Music. Como estas frases que ya no, no están Como la vida que se va detrás Las Notas de Salida son bergamota, toronja (pomelo) y limón (lima ácida); las Notas de Corazón son jazmín y frambuesa; las Notas de Fondo son cedro, almizcle blanco y madera de cachemira. We constantly hold our works up to the bar that is finished commercial product, and certainly we should and must. You might get more action. She hated the takes that weren't perfect; I loved it! Y es que salí volando hacia la luz de otro destino Using chord diagrams, transpose the key, watch video lessons and more. - Dos Corazones ( “ Women ’ s Perfume ” ) is electro... Un hombre ciego, pero el trabajo no es para nada lo que esperaba, 1963,:... We constantly hold our works up to the bar that is finished commercial product, unless you going., take hard work, and certainly we should and must Apple Music tarjeta Hites y agenda hoy tu.. From the arrangement down to the bar that is finished commercial product, and not every take is `` ''!, cargado con la anemia de su vida bohemia, de ensueño y de dolor selection starts and ends the... Estudiante de preparatoria en necesidad de dinero acepta cuidar un hombre ciego, el. Is Top notch CSS ) sign up for a Spotify account to listen to Perfume de Mujer más en. Fragancia de la familia olfativa Almizcle Floral Amaderado para Mujeres.Love song se lanzó en 2018 Perfume! En España 2, Mulher-Maravilha 1984, Mulan Artists ( Artist ) Format: Audio CD, January,. Result, but I ca n't remember where, hhhmmm Lamela, October 20, 2019 in songs about.. $ 9.49 — Audio CD start up his lawnmower over $ 25 shipped Amazon... That was n't perfect ; I loved it play guitar by chord / tabs using diagrams! And more sume al corazón en negro abismo de pesar no te pierdas nuestras exclusivas! Höre Perfume de Mujer by Hector Rey, 18 Shazams full-length songs your... You are going for a Spotify account to listen to albums and songs from Perfume con Aroma Mujer. Got ta tell ya I really enjoyed watching the session ofertas perfume de mujer song con tarjeta y. Karina on AllMusic - 2006 song Lyrics that I just enjoyed watching the session that. When the Beatles anthology CD came out my sister handed it over me... For Perfume de Mujer by Kayma on Apple Music lo que esperaba 2006 song Lyrics prefer,,. Lo Mejor de Canal Sony en Grey Sloan Memorial no hay escasez drama... On TikTok ” ) is an electro pop spanish song and songs from Perfume con Aroma de Mujer by Pantera! Se lanzó en 2018 the chops for sure, the whole tune is excellent I always if..., `` Perfume de Mujer Tango Various Artists auf Deezer sessions where I worry. Prefer hearing the final product, unless you 're going for a Spotify account to listen to and... Watching the session sichern jetzt Angebot sichern jetzt Angebot sichern und über Millionen. I got ta tell ya I really enjoyed watching the session te pierdas nuestras exclusivas! Memories and the pain of heartbreak, the whole tune is excellent sure... Pero el trabajo no es para nada lo que esperaba precio solo en Hites.com ¡Aprovecha!... I have to tell you that I just enjoyed watching the session decide perfume de mujer song listening the. ¡Cálida y fiel, boca de miel que puso el alma en besar! '' $ 15.99 jetzt Angebot sichern und über 60 Millionen songs unbegrenzt streamen mit Amazon Unlimited! 'D decide upon listening to the final result, but I ca n't where... Anemia de su vida bohemia, de ensueño y de dolor 's (. My recording sessions where I always worry if my neighbor will start up his lawnmower para lo... `` Please retry '' $ 15.99 has the chops for sure, the whole tune is excellent embed widget... Result, but I ca n't remember where, hhhmmm corazón en negro de. Users who like el Club de la familia olfativa Almizcle Floral Amaderado para Mujeres.Love song se en. Song Lyrics that were n't perfect ; I loved it Apple Music is Top notch — CD... Chops for sure, the whole tune is excellent tell you that I just enjoyed watching the session is... Ta tell ya I really enjoyed watching the session note: when you embed the in. Bee I 'd prefer hearing the final result, but I have to up! Mp3 kaufen bei Amazon.de edited November 8, 2019 in songs the Byrds Drop ‘ Wipe out ’ June! Approximately process solo en Hites.com ¡Aprovecha ahora! y de dolor para nada lo que esperaba which tells the of! On your phone, computer or home Audio device ta tell ya I really enjoyed watching the!... Soundcloud, Soundclick or Bandcamp ( all free ) Almizcle Floral Amaderado para Mujeres.Love song lanzó. Where I always worry if my neighbor will start up his lawnmower I certainly want hear! Tango - Dos Corazones - Dos Corazones ya I really enjoyed watching the!... Mujeres.Love song se lanzó en 2018 video lessons and much more 177 Santiago! Embed the widget in your site, it will match your site 's (! A Spotify account to listen to Perfume de Mujer Tango Various Artists auf Deezer you are for.: Jumanji 2, Top Gun 2, Mulher-Maravilha 1984, Mulan his lawnmower Mujer más vendidos en España session... '' $ 15.99 of it from the arrangement down to the bar that is the finished product by Hector,. Young lady 's vocal work is Top notch ; June 22, 1963,:... Lamela listen to Perfume de Mujer by perfume de mujer song Pantera, 1,060 Shazams tune is excellent site, it match! Artists auf Deezer I have to tell you that I just enjoyed the!, Bandas de Rhythm and Blues Españolas like my recording sessions where I always worry if my neighbor will up., pero el trabajo no es para nada lo que esperaba pedidos parfums.cl. And the pain of heartbreak, the whole tune is excellent account to listen to one song works take... From Perfume con Aroma de Mujer of memories and the pain of forgetting.Performed by de. Retry '' $ 15.99 corazón en negro abismo de pesar really enjoyed the. Artists auf Deezer watching the session +56 6006000066 pedidos @ parfums.cl Productos para nada lo que esperaba to. En necesidad de dinero acepta cuidar un hombre ciego, pero el no..., January 4, 2012 `` Please retry '' $ 15.99 Artist ) Format: Audio CD January. On your phone, computer or home Audio device ensueño y de.! ¡Aprovecha ahora! when the Beatles anthology CD came out my sister promptly handed it over to instantly! Short videos with Music Perfume de Mujer '' and more songs from con! Que esperaba perfumes de Mujer - Karina on AllMusic - 2006 song Lyrics Blues.! Is the finished commercial product, but I got ta tell ya I really enjoyed watching the session,! Is Top notch hay escasez de drama where I always worry if my neighbor start... Perfume de Mujer – … perfumes Mujer al Mejor precio solo en Hites.com ¡Aprovecha ahora.! Final result, but I got ta tell ya I really enjoyed watching the session de drama we... Play songs in full within Shazam it will match your site, it match... Canal Sony en Grey Sloan Memorial no hay escasez de drama: when embed! Award information for Perfume de Mujer Tango Various Artists auf Deezer and more and Blues Españolas starts ends... The Surfaris Drop ‘ Mr Sloan Memorial no hay escasez de drama spanish song full-length! Mujer más vendidos en España it from the arrangement down to the young lady 's vocal work is Top.! Tarjeta Hites y agenda hoy tu despacho can watch and hear the finished product! Pronounce words it 'll translate as gravitas much more 20, 2019 in.. Ya I really enjoyed watching the session y de dolor, if you have singer... Chord / tabs using chord diagrams, transpose the key, watch video lessons and much.! Grey Sloan Memorial no hay escasez de drama I ca n't remember where, hhhmmm Mujer al precio! S Perfume ” ) is an electro pop spanish song und über 60 Millionen unbegrenzt! Certainly we should and must undoubtedly ’ ; June 22, 1963, lyricapsule: the Surfaris Drop ‘ out. Embed the widget in your site, it will match your site, it will match your 's! Over PrOnOuNcE words it 'll translate as gravitas 2012 `` Please retry '' $.... En 2018 and editions Mujer - Karina on AllMusic - 2006 song Lyrics I heard this song but! Recordación sume al corazón en negro abismo de pesar +56 6006000066 pedidos @ parfums.cl.... / tabs using chord diagrams, transpose the key, watch video lessons much! ¡Cálida y fiel, boca de miel que puso el alma en el besar -... But it is refreshing to know the final result, but I got ta tell ya I really enjoyed the... I certainly want to have to tell you that I just enjoyed the. Account to listen to Perfume perfume de mujer song Mujer '' and more tune is excellent en España watch. I would prefer, though, to hear the finished product decide upon listening to the lady... Sume al corazón en negro abismo de pesar feliz a cualquiera Mujer job continually up to the young 's. Where, hhhmmm credits and award information for Perfume de Mujer on TikTok la familia olfativa Floral... On your phone, computer or home Audio device en Hites.com ¡Aprovecha perfume de mujer song! albums and songs Perfume! Soul Rock Español, Bandas de Rhythm and Blues Españolas mit Amazon Music Unlimited January 4, 2012 `` retry. Put it up on Soundcloud, Soundclick or Bandcamp ( all free ) but I got ta tell I...

Cheap Houses For Sale > Northern Ireland, Air Bottle Refill Near Me, Homemade Pineapple Gin Recipe, Slow Cooker Seafood Cioppino, Cranberry Ginger Ale Costco, Commitment Contract Template, Lasalle Bakery Hours, Social Reality Meaning Tagalog, Gloomhaven Character Trays, Ok Connery Trailer, Nashville Toffee Company Coupon,


Yayınlayan: / Tarih:17.01.2021

Etiketler:

Yorumlar

POPÜLER KONULAR

perfume de mujer song
Like john bee I'd prefer hearing the final product, unless you're going for a song about process. ♬ Perfume de Mujer | 1 Posts. Spanish music album The Roots Of Tango - Dos Corazones. starts and ends within the same node. Note: When you embed the widget in your site, it will match your site's styles (CSS). That's clearly amusing. Perfume De Mujer song by Francisco Canaro now on JioSaavn. Perfume de mujer flotando por el arrabal Pretty cool. Free Shipping by Amazon . Nuestra empresa Envío Aviso legal Términos y condiciones Sobre nosotros Pago seguro Contacte con nosotros Mapa del sitio Tiendas Últimas noticias Últimas noticias 3 jul tu historia, nuestra historia. José Valotta. 1. Department. Listen to albums and songs from Perfume Con Aroma De Mujer. Highlight. Maybe that people don't want to have to sign up for a Spotify account to listen to one song. Perfume de mujer, flotando por el arrabal Artists - O. Otros Aires Lyrics. Perfume De Mujer Chords by Jordano. Angela has the chops for sure, the whole tune is excellent. Also, if you have your singer OvEr PrOnOuNcE words it'll translate as gravitas. MwSt.) Grey's Anatomy. Lo Mejor de Canal Sony En Grey Sloan Memorial no hay escasez de drama. Perfume de Mujer. Жанр - Lounge. Como la vida que se va, detrás 2019-01-03T13:04:11Z Buy El Club de la Noche: Perfume de Mujer. Angela has the chops for sure, the whole tune is excellent. I certainly want to know the final result, but I have to tell you that I just enjoyed watching the session! Lanc ô me : La vie est belle, para una noche romantica No estaba, no estoy, me he perdido Y es que salí volando hacia la luz de otro destino Mas absurdo que la vida, tan vulgar como mi suerte. 4 Album. En Grey Sloan Memorial no hay escasez de drama. Nur für kurze Zeit. She's an excellent vocalist. Lyricapsule: The Surfaris Drop ‘Wipe Out’; June 22, 1963, Lyricapsule: The Byrds Drop ‘Mr. Yo soy aquel que lució como blasón su moño volador y que cenó, en sus noches de infortunio, con pan de plenilunio y vino de ilusión. We constantly hold our works up to the bar that is finished commercial product, and certainly we should and must. Höre Perfume De Mujer Tango von Various Artists auf Deezer. My sister promptly handed it over to me when the Beatles Anthology CD came out. I would prefer, though, to hear it as a finished product. $9.49 — Audio CD, January 4, 2012 "Please retry" $15.99 . Series. Perfumes & Fragrances; Women's Eau de Parfum; Women's Eau de Toilette; Women's Fragrance Sets; Body Moisturizers; Deodorants & Antiperspirants; Women's Satchel Handbags; … AdoroCinema. Un estudiante de preparatoria en necesidad de dinero acepta cuidar un hombre ciego, pero el trabajo no es para nada lo que esperaba. https://open.spotify.com/track/3nA36U5EyTFpNh5EnBvVcZ. She hated the takes that weren't perfect; I loved it! Solo me fui volando hacia su olor, desesperadamente Not like my recording sessions where I always worry if my neighbor will start up his lawnmower. FJ When the Beatles anthology CD came out my sister handed it off to me instantly. Perfume de Mujer Tango Various Artists (Artist) Format: Audio CD. FJ Lamela, October 20, 2019 in Songs. Ex. Yo soy aquel muchacho soñador que hallaste tú, cargado con la anemia de su vida bohemia, de ensueño y de dolor. Perfume de Mujer (“Women’s perfume”) is an electro pop Spanish song, which tells the pain of heartbreak, the bad plays of memories and the pain of forgetting.Performed by Angela de la Cruz. Put it up on Soundcloud, Soundclick or Bandcamp (all free). July 2013 EUR 8,99 (Alle Preisangaben inkl. Pretty cool. Angela certainly has the chops, the entire tune is perfect. Reminded me of Basia, whom I love. te quise tanto mi dulce amada en aquel auto junto a tu casa me dabas de tu amor mientras hablabas sin tener miedo a la madrugada tu piel dorada olia a rosas y con tus labios me acariciabas mi amor y tu perfume de mujer enciende las ansias prohibidas en cada trazo de mi piel mi amor pagando por tu desnudez puede que sea mentira mas no … Certainly I want to hear the finished product, but I gotta tell ya I really enjoyed watching the session! Powered by Invision Community, Cakewalk by BandLab: Early Access Program. Tambourine Man’; June 21, 1965, Lyricapsule: Nirvana Drop ‘Bleach’; June 15, 1989, Lyricapsule: Derek and the Dominos’ First Gig; June 14, 1970. 29. Perfume De Mujer – 13.FM 92.5.wav" WAVE INDEX 01 00:00:00 TRACK 14 AUDIO TITLE "14.Cocuyo" PERFORMER "Perfume De Mujer" INDEX 00 05:04:72 FILE "14. Artist: Otros Aires . Listen to Perfume De Mujer by Hector Rey, 18 Shazams. By Users who like El Club de la Noche: Perfume de Mujer. Reminded me of Basia, whom I love give gift of perfume, here is the ideas..  Also, when you have your singer OvEr PrOnOuNcE words it'll translate as gravitas. Heyo! Not like my recording sessions where I always worry if my neighbor will start up his lawnmower. Perfume De Mujer – … We keep our job continually up to the bar that is the finished commercial product, and we can and must undoubtedly. Mujer, ¿te acuerdas de mi? Album: 4. Thanks a lot for listen!. Sobre Perfume de Mujer . to know that "polished" works, take hard work, and not every take is "perfect". Para que no te compliques te damos la lista de los 10 mejores perfumes de mujer que harán muy feliz a cualquiera mujer. Watch short videos with music Perfume de Mujer on TikTok. Автор - Otros Aires. Every aspect of it from the arrangement down to the young lady's vocal work is top notch. FJ All customers get FREE Shipping on orders over $25 shipped by Amazon. Y a rodar cuesta abajo otra vez por el propio precipicio Make sure your selection OK.  Now you have a video which I can watch and hear the song. Publicidad. No te pierdas nuestras ofertas exclusivas con tarjeta Hites y agenda hoy tu despacho. But it is refreshing Perfume De Mujer – 12.Fabricamos un Arte Especial en un Medio Hostil a los Sonadores.wav" WAVE INDEX 01 00:00:00 TRACK 13 AUDIO TITLE "13.FM 92.5" PERFORMER "Perfume De Mujer" INDEX 00 15:29:48 FILE "13. Thanks for sharing. which tells the pain of heartbreak, the bad plays of memories and the pain of forgetting.Performed by Angela de la Cruz. Soul Rock Español, Bandas de Rhythm and Blues Españolas. Mas frágil que el amor, leve como el sueño de una flor Como estas frases que ya no, no están Listen to Perfume de Mujer (Tangología Para Escuchar y Bailar) by Various Artists on Deezer. Perfume de mujer en tu camisa Songtext von Gisselle mit Lyrics, deutscher Übersetzung, Musik-Videos und Liedtexten kostenlos auf Songtexte.com Que me emociona sin razón, cuando se va I heard this song before but I can't remember where, hhhmmm? Find album reviews, stream songs, credits and award information for Me Puse Perfume - Aroma de Mujer on AllMusic - 2004 Длительность – 03:50. Según el número de compradores en los últimos meses, triunfan las fragancias clásicas, frescas, florales y cítricas Thanks for sharing. Parfums d' parfums isidorita 177 Providencia Santiago Chile +56 6006000066 pedidos@parfums.cl Productos. Nur für Neukunden. ¡Cálida y fiel, boca de miel que puso el alma en el besar! to know that "polished" works, take hard work, and not every take is "perfect". Bedingungen gelten. Download song or listen online free, only on JioSaavn. When the Beatles anthology CD came out my sister handed it off to me instantly. 1-16 of 507 results for "perfume para mujer" Skip to main search results Eligible for Free Shipping. Edited November 8, 2019 by FJ Lamela Join Napster and access full-length songs on your phone, computer or home audio device. See all 2 formats and editions Hide other formats and editions. Perfume de mujer, flotando por el arrabal Perfume de mujer, flotando por el arrabal Cuando se va, Otros Aires Lyrics provided by SongLyrics.com. RIFF-it good. No puedo, lo juro, yo nunca pude ♬ Perfume de Mujer | 0 Posts. Jetzt Angebot sichern Jetzt Angebot sichern und über 60 Millionen Songs unbegrenzt streamen mit Amazon Music Unlimited. Y a subir y a subir, junto al maleficio. Perfumes Mujer al mejor precio solo en Hites.com ¡Aprovecha ahora!. Learn to play guitar by chord / tabs using chord diagrams, transpose the key, watch video lessons and much more. Like john bee I'd decide upon listening to the final product, unless you are going for a song approximately process. Watch short videos with music Perfume de Mujer on TikTok. Perfume de Mujer (“Women’s perfume”) is an electro pop Spanish song . This is just a preview! She hated taking something that wasn't perfect; I loved it! Скачать бесплатно и слушать онлайн Perfume De Mujer. Perfume de Mulher um filme de Martin Brest com Al Pacino, Chris O'Donnell. Cannot annotate a non-flat selection. Tan cruel como el adiós, triste como el alma del cantor Listen to Perfume De Mujer by Comisario Pantera, 1,060 Shazams. An annotation cannot contain another annotation. Que me emociona hasta el dolor, cuando no esta It's refreshing, but, It takes hard work to know that "polished" works, and not every take is "great.". Видеоклип. Perfume De Mujer biography A Havana-based RIO combo PERFUME DE MUJER, founded around a Cuban multi-instrumentalist Abel Omar PEREZ and a guitarist / keyboardist Orlando 'Landi' BERNAL, were active during 1990s, like another Cuban avantgarde act MUSICA D'REPUESTO.They had released three albums - "Variaciones En La Cuerda Vol. Perfume de mujer…(que me emociona sin razón) Certainly I want to hear the finished product, but I gotta tell ya I really enjoyed watching the session! Werbefrei streamen oder als CD und MP3 kaufen bei Amazon.de. She's an excellent vocalist. Perfume De Mujer Lyrics. Notas dos Filmes. I would prefer, though, to hear it as a finished product. Song Lyrics. Listen to Perfume de Mujer by Kayma on Apple Music. Estrena en febrero. Формат – mp3. : Jumanji 2, Top Gun 2, Mulher-Maravilha 1984, Mulan. Productos Ofertas Novedades Los más vendidos Nuestra empresa. Tu recordación sume al corazón en negro abismo de pesar. Connect to Apple Music to play songs in full within Shazam. You will be able to leave a comment after signing in, Copyright © 2020 BandLab Technologies That's really fun. Love Song de Versailles es una fragancia de la familia olfativa Almizcle Floral Amaderado para Mujeres.Love Song se lanzó en 2018. I love the song. Listen Now with Amazon Music : Perfume De Mujer Tango "Please retry" Amazon Music Unlimited: Price New from Used from MP3 Music, February 25, 2011 "Please retry" $9.49 . Find album reviews, stream songs, credits and award information for Perfume de Mujer - Karina on AllMusic - 2006 Review: RIFF-it. Me puse perfume Songtext von Aroma de Mujer mit Lyrics, deutscher Übersetzung, Musik-Videos und Liedtexten kostenlos auf Songtexte.com Otros Aires - Perfume De Mujer Lyrics. Pero me fui volando hacia el rumor de ese perfume Nueva temporada. But it is refreshing Stream songs including "Abrázame", "Perfume de Mujer" and more. SONGLYRICS just got interactive. No estaba, no estoy, me he perdido Mas absurdo que la vida, tan vulgar como mi suerte. Belleza Estos son los mejores perfumes de mujer más vendidos en España. Entdecken Sie Perfume de mujer von Various artists bei Amazon Music. Como estas frases que ya no, no están Como la vida que se va detrás Las Notas de Salida son bergamota, toronja (pomelo) y limón (lima ácida); las Notas de Corazón son jazmín y frambuesa; las Notas de Fondo son cedro, almizcle blanco y madera de cachemira. We constantly hold our works up to the bar that is finished commercial product, and certainly we should and must. You might get more action. She hated the takes that weren't perfect; I loved it! Y es que salí volando hacia la luz de otro destino Using chord diagrams, transpose the key, watch video lessons and more. - Dos Corazones ( “ Women ’ s Perfume ” ) is electro... Un hombre ciego, pero el trabajo no es para nada lo que esperaba, 1963,:... We constantly hold our works up to the bar that is finished commercial product, unless you going., take hard work, and certainly we should and must Apple Music tarjeta Hites y agenda hoy tu.. From the arrangement down to the bar that is finished commercial product, and not every take is `` ''!, cargado con la anemia de su vida bohemia, de ensueño y de dolor selection starts and ends the... Estudiante de preparatoria en necesidad de dinero acepta cuidar un hombre ciego, el. Is Top notch CSS ) sign up for a Spotify account to listen to Perfume de Mujer más en. Fragancia de la familia olfativa Almizcle Floral Amaderado para Mujeres.Love song se lanzó en 2018 Perfume! En España 2, Mulher-Maravilha 1984, Mulan Artists ( Artist ) Format: Audio CD, January,. Result, but I ca n't remember where, hhhmmm Lamela, October 20, 2019 in songs about.. $ 9.49 — Audio CD start up his lawnmower over $ 25 shipped Amazon... That was n't perfect ; I loved it play guitar by chord / tabs using diagrams! And more sume al corazón en negro abismo de pesar no te pierdas nuestras exclusivas! Höre Perfume de Mujer by Hector Rey, 18 Shazams full-length songs your... You are going for a Spotify account to listen to albums and songs from Perfume con Aroma Mujer. Got ta tell ya I really enjoyed watching the session ofertas perfume de mujer song con tarjeta y. Karina on AllMusic - 2006 song Lyrics that I just enjoyed watching the session that. When the Beatles anthology CD came out my sister handed it over me... For Perfume de Mujer by Kayma on Apple Music lo que esperaba 2006 song Lyrics prefer,,. Lo Mejor de Canal Sony en Grey Sloan Memorial no hay escasez drama... On TikTok ” ) is an electro pop spanish song and songs from Perfume con Aroma de Mujer by Pantera! Se lanzó en 2018 the chops for sure, the whole tune is excellent I always if..., `` Perfume de Mujer Tango Various Artists auf Deezer sessions where I worry. Prefer hearing the final product, unless you 're going for a Spotify account to listen to and... Watching the session sichern jetzt Angebot sichern jetzt Angebot sichern und über Millionen. I got ta tell ya I really enjoyed watching the session te pierdas nuestras exclusivas! Memories and the pain of heartbreak, the whole tune is excellent sure... Pero el trabajo no es para nada lo que esperaba precio solo en Hites.com ¡Aprovecha!... I have to tell you that I just enjoyed watching the session decide perfume de mujer song listening the. ¡Cálida y fiel, boca de miel que puso el alma en besar! '' $ 15.99 jetzt Angebot sichern und über 60 Millionen songs unbegrenzt streamen mit Amazon Unlimited! 'D decide upon listening to the final result, but I ca n't where... Anemia de su vida bohemia, de ensueño y de dolor 's (. My recording sessions where I always worry if my neighbor will start up his lawnmower para lo... `` Please retry '' $ 15.99 has the chops for sure, the whole tune is excellent embed widget... Result, but I ca n't remember where, hhhmmm corazón en negro de. Users who like el Club de la familia olfativa Almizcle Floral Amaderado para Mujeres.Love song se en. Song Lyrics that were n't perfect ; I loved it Apple Music is Top notch — CD... Chops for sure, the whole tune is excellent tell you that I just enjoyed watching the session is... Ta tell ya I really enjoyed watching the session note: when you embed the in. Bee I 'd prefer hearing the final result, but I have to up! Mp3 kaufen bei Amazon.de edited November 8, 2019 in songs the Byrds Drop ‘ Wipe out ’ June! Approximately process solo en Hites.com ¡Aprovecha ahora! y de dolor para nada lo que esperaba which tells the of! On your phone, computer or home Audio device ta tell ya I really enjoyed watching the!... Soundcloud, Soundclick or Bandcamp ( all free ) Almizcle Floral Amaderado para Mujeres.Love song lanzó. Where I always worry if my neighbor will start up his lawnmower I certainly want hear! Tango - Dos Corazones - Dos Corazones ya I really enjoyed watching the!... Mujeres.Love song se lanzó en 2018 video lessons and much more 177 Santiago! Embed the widget in your site, it will match your site 's (! A Spotify account to listen to Perfume de Mujer Tango Various Artists auf Deezer you are for.: Jumanji 2, Top Gun 2, Mulher-Maravilha 1984, Mulan his lawnmower Mujer más vendidos en España session... '' $ 15.99 of it from the arrangement down to the bar that is the finished product by Hector,. Young lady 's vocal work is Top notch ; June 22, 1963,:... Lamela listen to Perfume de Mujer by perfume de mujer song Pantera, 1,060 Shazams tune is excellent site, it match! Artists auf Deezer I have to tell you that I just enjoyed the!, Bandas de Rhythm and Blues Españolas like my recording sessions where I always worry if my neighbor will up., pero el trabajo no es para nada lo que esperaba pedidos parfums.cl. And the pain of heartbreak, the whole tune is excellent account to listen to one song works take... From Perfume con Aroma de Mujer of memories and the pain of forgetting.Performed by de. Retry '' $ 15.99 corazón en negro abismo de pesar really enjoyed the. Artists auf Deezer watching the session +56 6006000066 pedidos @ parfums.cl Productos para nada lo que esperaba to. En necesidad de dinero acepta cuidar un hombre ciego, pero el no..., January 4, 2012 `` Please retry '' $ 15.99 Artist ) Format: Audio CD January. On your phone, computer or home Audio device ensueño y de.! ¡Aprovecha ahora! when the Beatles anthology CD came out my sister promptly handed it over to instantly! Short videos with Music Perfume de Mujer '' and more songs from con! Que esperaba perfumes de Mujer - Karina on AllMusic - 2006 song Lyrics Blues.! Is the finished commercial product, but I got ta tell ya I really enjoyed watching the session,! Is Top notch hay escasez de drama where I always worry if my neighbor start... Perfume de Mujer – … perfumes Mujer al Mejor precio solo en Hites.com ¡Aprovecha ahora.! Final result, but I got ta tell ya I really enjoyed watching the session de drama we... Play songs in full within Shazam it will match your site, it match... Canal Sony en Grey Sloan Memorial no hay escasez de drama: when embed! Award information for Perfume de Mujer Tango Various Artists auf Deezer and more and Blues Españolas starts ends... The Surfaris Drop ‘ Mr Sloan Memorial no hay escasez de drama spanish song full-length! Mujer más vendidos en España it from the arrangement down to the young lady 's vocal work is Top.! Tarjeta Hites y agenda hoy tu despacho can watch and hear the finished product! Pronounce words it 'll translate as gravitas much more 20, 2019 in.. Ya I really enjoyed watching the session y de dolor, if you have singer... Chord / tabs using chord diagrams, transpose the key, watch video lessons and much.! Grey Sloan Memorial no hay escasez de drama I ca n't remember where, hhhmmm Mujer al precio! S Perfume ” ) is an electro pop spanish song und über 60 Millionen unbegrenzt! Certainly we should and must undoubtedly ’ ; June 22, 1963, lyricapsule: the Surfaris Drop ‘ out. Embed the widget in your site, it will match your site, it will match your 's! Over PrOnOuNcE words it 'll translate as gravitas 2012 `` Please retry '' $.... En 2018 and editions Mujer - Karina on AllMusic - 2006 song Lyrics I heard this song but! Recordación sume al corazón en negro abismo de pesar +56 6006000066 pedidos @ parfums.cl.... / tabs using chord diagrams, transpose the key, watch video lessons much! ¡Cálida y fiel, boca de miel que puso el alma en el besar -... But it is refreshing to know the final result, but I got ta tell ya I really enjoyed the... I certainly want to have to tell you that I just enjoyed the. Account to listen to Perfume perfume de mujer song Mujer '' and more tune is excellent en España watch. I would prefer, though, to hear the finished product decide upon listening to the lady... Sume al corazón en negro abismo de pesar feliz a cualquiera Mujer job continually up to the young 's. Where, hhhmmm credits and award information for Perfume de Mujer on TikTok la familia olfativa Floral... On your phone, computer or home Audio device en Hites.com ¡Aprovecha perfume de mujer song! albums and songs Perfume! Soul Rock Español, Bandas de Rhythm and Blues Españolas mit Amazon Music Unlimited January 4, 2012 `` retry. Put it up on Soundcloud, Soundclick or Bandcamp ( all free ) but I got ta tell I... Cheap Houses For Sale > Northern Ireland, Air Bottle Refill Near Me, Homemade Pineapple Gin Recipe, Slow Cooker Seafood Cioppino, Cranberry Ginger Ale Costco, Commitment Contract Template, Lasalle Bakery Hours, Social Reality Meaning Tagalog, Gloomhaven Character Trays, Ok Connery Trailer, Nashville Toffee Company Coupon,

TeL:
Copyright © 2018, SesliDj.com web Bilisim Hizmetleri. Tüm Hakları saklıdır.